img image001 image001 image001 image001 image001 image001 image001 image001 image001 image001 image001 image001 image001 image001 image001 image001

Planets Sun Sun Sun
Статистика раздачи
Автор: Снежана | Размер: 13.68 ГБ | Добавлен: 17 мар 2018
Раздают: 4    Качают: 2
Скачать торрент
Скачать торрент
Описание торрента

СообщениеДобавлено: 17 мар 2018 

Высокие ставки (2 сезон 1-6 серии из 16) Реванш


Перевод: Не требуется
Субтитры: отсутствуют
Формат: HDTV 1080p, MKV, H264, AC3
Страна: Россия
Режиссер: Максим Бриус
Жанр: драма, криминал
Всего серий: 24
Продолжительность: 6 х ~ 00:48:00
Год выпуска: 2018

В ролях: Алексей Нилов, Максим Дахненко, Лукерья Ильяшенко, Алексей Парасевич, Сергей Волков (III), Владимир Литвинов, Дмитрий Караневский, Ксения Белобородова, Дарья Зарецкая, Валерий Филонов, Николай Иванов (VII), Александр Дюрис, Максим Сергеев, Аграфена Петровская, Владимир Сороколита, Евгения Абдулаева, Евгений Овсянников, Марчин Руй, Исса Дауров, Сергей Стукалов...

Описание: Действие второго сезона происходит спустя несколько лет после завершения событий, о которых рассказано в первой части картины. Юрий Сергеев по прозвищу «Космонавт» продолжает управлять своим казино в отсутствие друга и главного помощника Капитана, который скоро должен выйти на свободу из заключения. Между тем, дела Космонавта идут всё хуже. Казино с каждым днём приносит меньше прибыли, старые клиенты один за другим переходят на более безопасный и удобный способ получать удовольствие от азартных игр – они становятся пользователями онлайн-казино. Самым популярным из них является казино «Russian Glory», открытое молодой амбициозной предпринимательницей Глорией Филиппенковой, хорошо разбирающейся в современных технологиях. Неожиданно Глория делает Космонавту предложение о совместном ведении бизнеса и нагло вторгается на территорию старого бандита.



Видео: 1920x1080i (16:9), 25,000 fps, AVC MPEG-4 (x264), , ~ 7 051 Кбит/сек, 0.136 bit/pixel
Аудио: 48 kHz, AC3 Dolby Digital, 2/0 (L,R) ch, ~192 kbps avg

Внимание! Раздача ведётся путём добавления новых серий. При каждом добавлении создаётся новый торрент.
Чтобы начать докачку новой серии, пользователям необходимо сделать следующее:
1. Остановить скачивание.
2. Удалить старый торрент у себя из клиента (старые серии удалять не надо).
3. Скачать новый торрент и запустить его у себя в клиенте вместо старого, при этом указать клиенту путь в старую папку куда и должно происходить скачивание новых серий. Ваш клиент при этом должен произвести хеширование (проверку) старой папки и будет докачивать только те серии, которых у вас ещё нет. Старые серии при этом не удаляются, а продолжают раздаваться! Eсли вы уже удалили старые серии, то предотвратить повторную закачку старых серий можно, отжав галочку в соответствующих местах при запуске нового торрента.








Общее
Уникальный идентификатор : 239302414629767927510030135042483299471 (0xB407F7F6D2960BAFB012013CDC1A248F)
Полное имя : E:\Закачка-2\Vysokie stavki revansh.s01.e03.2017.HDTV 1080p.by.White Smoke.R.G.Generalfilm.mkv
Формат : Matroska
Версия формата : Version 4 / Version 2
Размер файла : 2,22 Гбайт
Продолжительность : 43 м.
Режим общего битрейта : Постоянный
Общий поток : 7240 Кбит/сек
Название фильма : Vysokie stavki revansh.s01.e03.2017.HDTV 1080p.by.White Smoke.R.G.Generalfilm.mkv
Дата кодирования : UTC 2018-03-14 07:40:28
Программа кодирования : mkvmerge v6.8.0 ('Theme for Great Cities') 64bit built on Mar 2 2014 21:34:26
Библиотека кодирования : libebml v1.3.0 + libmatroska v1.4.1

Видео
Идентификатор : 1
Формат : AVC
Формат/Информация : Advanced Video Codec
Профиль формата :
Параметр CABAC формата : Да
Параметр ReFrames формата : 3 кадра
Параметр GOP формата : M=3, N=33
Идентификатор кодека : V_MPEG4/ISO/AVC
Продолжительность : 43 м.
Вид битрейта : Постоянный
Битрейт : 7051 Кбит/сек
Ширина : 1920 пикселей
Высота : 1080 пикселей
Соотношение сторон : 16:9
Режим частоты кадров : Постоянный
Частота кадров : 25,000 кадров/сек
Стандарт вещания : PAL
Цветовое пространство : YUV
Субдискретизация насыщенности : 4:2:0
Битовая глубина : 8 бит
Тип развёртки : Прогрессивная
Бит/(Пиксели*Кадры) : 0.136
Размер потока : 2,11 Гбайт (95%)
Default : Да
Forced : Нет
Цветовой диапазон : Limited
Основные цвета : BT.709
Характеристики трансфера : BT.709
Коэффициенты матрицы : BT.709

Аудио
Идентификатор : 2
Формат : AC-3
Формат/Информация : Audio Coding 3
Расширение режима : CM (complete main)
Параметр Endianness формата : Big
Идентификатор кодека : A_AC3
Продолжительность : 43 м.
Вид битрейта : Постоянный
Битрейт : 192 Кбит/сек
Каналы : 2 канала
Расположение каналов : Front: L R
Частота : 48,0 КГц
Частота кадров : 31,250 кадров/сек (1536 spf)
Метод сжатия : С потерями
Размер потока : 60,2 Мбайт (3%)
Default : Да
Forced : Нет






   Похожие торренты   Торрент   Размер 
В этой теме нет новых непрочитанных сообщений. Высокие ставки (2 сезон 1-10 серии из 16) Реванш (Максим Бриус) [2018, драма, криминал, HDTV 1080p]

15 | 12

22.83 ГБ

В этой теме нет новых непрочитанных сообщений. Высокие ставки (2 сезон 1-16 серии из 16) Реванш (Максим Бриус) [2018, драма, криминал, HDTV 1080p]

16 | 0

36.5 ГБ

В этой теме нет новых непрочитанных сообщений. Высокие ставки (2 сезон 1-10 серии из 16) Реванш (Максим Бриус) [2018, драма, криминал, WEB-DL 1080p]

0 | 2

21.04 ГБ

В этой теме нет новых непрочитанных сообщений. Высокие ставки (2 сезон 1-14 серии из 16) Реванш (Максим Бриус) [2018, драма, криминал, WEB-DL 1080p]

0 | 0

29.48 ГБ

В этой теме нет новых непрочитанных сообщений. Высокие ставки (2 сезон 1-16 серии из 16) Реванш (Максим Бриус) [2018, драма, криминал, WEB-DL 1080p]

16 | 0

33.84 ГБ

В этой теме нет новых непрочитанных сообщений. Высокие ставки (2 сезон 1-8 серии из 16) Реванш (Максим Бриус) [2018, драма, криминал, WEBRip 1080p]

1 | 0

16.77 ГБ

В этой теме нет новых непрочитанных сообщений. Высокие ставки (2 сезон 1-4 серии из 24) Реванш (Максим Бриус) [2018, драма, криминал, WEBRip 1080p]

2 | 0

8.42 ГБ




Вы не можете начинать темы
Вы не можете отвечать на сообщения
Вы не можете редактировать свои сообщения
Вы не можете удалять свои сообщения
Вы не можете добавлять вложения

Перейти:  
 Вход
ppkBB3cker v.2 © 2008-2014 @ PPK
[ Time : 0.054s | 17 Queries | GZIP : Off ]

cron