img image001 image001 image001 image001 image001 image001 image001 image001 image001 image001 image001 image001 image001 image001 image001 image001

Planets Sun Sun Sun
Статистика раздачи
Автор: Снежана | Размер: 745.66 МБ | Добавлен: 17 мар 2018
Раздают: 6    Качают: 0
Скачать торрент
Скачать торрент
Описание торрента

СообщениеДобавлено: 17 мар 2018 

Нечто / The Thing

Перевод: Профессиональный (многоголосый, закадровый)
Субтитры: Русские, английские
Формат: LowHDRip-AVC, MKV, H.264, AAC
Страна: США
Режиссер: Джон Карпентер
Жанр: ужасы, фантастика, детектив
Продолжительность: 01:48:42
Год выпуска: 1982

В ролях: Курт Расселл, Уилфорд Бримли, Т.К. Картер, Дэвид Кленнон, Кит Дэвид, Ричард А. Дайсарт, Чарлз Хэллахан, Питер Мэлоуни, Ричард Масур, Доналд Моффэт

Описание: Команде ученых американской исследовательской базы в Антарктике предстоит столкнуться с необъяснимым, чудовищным кошмаром. Отрезанные от всего света полярники вступают в неравную схватку с инопланетной тварью, пробудившейся после тысячелетней спячки во льдах.



Видео: 752x320 (2.35:1), 23.976 fps, AVC MPEG-4 (H.264), ~806 kbps, 0.140 bit/pixel
Аудио #1: Русский: 48 kHz, AАС-HE, 2 ch, ~76 kbps [Профессиональный (многоголосый, закадровый)] ОРТ
Аудио #2: Русский: 48 kHz, AАС-HE, 2 ch, ~76 kbps [Профессиональный (многоголосый, закадровый)] СТС

Доп. информация: Экранизация научно-фантастической повести Джона В. Кэмпбелла-младшего «Кто идёт?», ремейк фильма «Нечто из иного мира» (1951).
Формат : Matroska
Версия формата : Version 4 / Version 2
Размер файла : 746 Мбайт
Продолжительность : 1 ч. 48 м.
Общий поток : 959 Кбит/сек
Дата кодирования : UTC 2018-03-09 19:20:08
Программа кодирования : mkvmerge v15.0.0 ('Duel with the Devil') 64-bit
Библиотека кодирования : libebml v1.3.5 + libmatroska v1.4.5

Видео
Идентификатор : 1
Формат : AVC
Формат/Информация : Advanced Video Codec
Профиль формата :
Параметр CABAC формата : Да
Параметр RefFrames формата : 10 кадров
Идентификатор кодека : V_MPEG4/ISO/AVC
Продолжительность : 1 ч. 48 м.
Битрейт : 806 Кбит/сек
Ширина : 752 пикселя
Высота : 320 пикселей
Соотношение сторон : 2,35:1
Режим частоты кадров : Постоянный
Частота кадров : 23,976 (24000/1001) кадра/сек
Цветовое пространство : YUV
Субдискретизация насыщенности : 4:2:0
Битовая глубина : 8 бит
Тип развёртки : Прогрессивная
Бит/(Пиксели*Кадры) : 0.140
Размер потока : 626 Мбайт (84%)
Библиотека кодирования : x264 core 155 r2901 7d0ff22
Настройки программы : cabac=1 / ref=10 / deblock=1:-3:-3 / analyse=0x3:0x133 / me=umh / subme=11 / psy=1 / psy_rd=1.00:0.09 / mixed_ref=1 / me_range=32 / chroma_me=1 / trellis=2 / 8x8dct=1 / cqm=0 / deadzone=21,11 / fast_pskip=0 / chroma_qp_offset=-3 / threads=6 / lookahead_threads=1 / sliced_threads=0 / nr=0 / decimate=0 / interlaced=0 / bluray_compat=0 / constrained_intra=0 / bframes=10 / b_pyramid=2 / b_adapt=2 / b_bias=0 / direct=3 / weightb=1 / open_gop=0 / weightp=2 / keyint=240 / keyint_min=23 / scenecut=40 / intra_refresh=0 / rc_lookahead=40 / rc=2pass / mbtree=1 / bitrate=806 / ratetol=1.0 / qcomp=0.60 / qpmin=0 / qpmax=69 / qpstep=4 / cplxblur=20.0 / qblur=0.5 / vbv_maxrate=50000 / vbv_bufsize=62500 / nal_hrd=none / filler=0 / ip_ratio=1.40 / aq=3:1.00
Default : Да
Forced : Нет

Аудио #1
Идентификатор : 2
Формат : AAC
Формат/Информация : Advanced Audio Codec
Профиль формата : HE-AAC / LC
Идентификатор кодека : A_AAC
Продолжительность : 1 ч. 48 м.
Битрейт : 76,0 Кбит/сек
Каналы : 2 канала
Расположение каналов : Front: L R
Частота : 48,0 КГц / 24,0 КГц
Частота кадров : 23,438 кадра/сек (1024 SPF)
Метод сжатия : С потерями
Задержка видео : 31 мс.
Размер потока : 59,1 Мбайт (8%)
Язык : Russian
Default : Да
Forced : Нет

Аудио #2
Идентификатор : 3
Формат : AAC
Формат/Информация : Advanced Audio Codec
Профиль формата : HE-AAC / LC
Идентификатор кодека : A_AAC
Продолжительность : 1 ч. 48 м.
Битрейт : 76,0 Кбит/сек
Каналы : 2 канала
Расположение каналов : Front: L R
Частота : 48,0 КГц / 24,0 КГц
Частота кадров : 23,438 кадра/сек (1024 SPF)
Метод сжатия : С потерями
Задержка видео : 31 мс.
Размер потока : 59,1 Мбайт (8%)
Язык : Russian
Default : Нет
Forced : Нет

Текст #1
Идентификатор : 4
Формат : UTF-8
Идентификатор кодека : S_TEXT/UTF8
Идентификатор кодека/Информация : UTF-8 Plain Text
Продолжительность : 1 ч. 39 м.
Битрейт : 56 бит/сек
ElementCount : 631
Размер потока : 41,4 Кбайт (0%)
Заголовок : Русские
Язык : Russian
Default : Нет
Forced : Нет

Текст #2
Идентификатор : 5
Формат : UTF-8
Идентификатор кодека : S_TEXT/UTF8
Идентификатор кодека/Информация : UTF-8 Plain Text
Продолжительность : 1 ч. 36 м.
Битрейт : 32 бит/сек
ElementCount : 630
Размер потока : 23,1 Кбайт (0%)
Заголовок : Английские
Язык : English
Default : Нет
Forced : Нет












   Похожие торренты   Торрент   Размер 
В этой теме нет новых непрочитанных сообщений. Кладбище домашних животных / Pet Sematary (Мэри Ламберт) [1989, ужасы, LowHDRip-AVC] 2xMVO / Мистика

6 | 0

746.29 МБ

В этой теме нет новых непрочитанных сообщений. Нечто / The Thing (1982) HDRip | A

1 | 0

1.37 ГБ

В этой теме нет новых непрочитанных сообщений. Нечто / The Thing (1982) BDRip-AVC | A

18 | 0

749.21 МБ

В этой теме нет новых непрочитанных сообщений. Нечто / The Thing (1982) Blu-ray 1080p

5 | 15

33.18 ГБ

В этой теме нет новых непрочитанных сообщений. Живое / Life (Даниэль Эспиноса) [2017, ужасы, фантастика, триллер, LowHDRip] DUB / Фантастика

21 | 8

741.09 МБ

В этой теме нет новых непрочитанных сообщений. Нечто / The Thing (1982) HD DVD Remux 1080p

5 | 5

21.51 ГБ

В этой теме нет новых непрочитанных сообщений. Нечто / The Thing (1982) HDRip | КПК | Goblin

87 | 6

514.51 МБ




Вы не можете начинать темы
Вы не можете отвечать на сообщения
Вы не можете редактировать свои сообщения
Вы не можете удалять свои сообщения
Вы не можете добавлять вложения

Перейти:  
 Вход
ppkBB3cker v.2 © 2008-2014 @ PPK
[ Time : 0.033s | 18 Queries | GZIP : Off ]

cron