img image001 image001 image001 image001 image001 image001 image001 image001 image001 image001 image001 image001 image001 image001 image001

Planets Sun Sun Sun
Статистика раздачи
Автор: Снежана | Размер: 1 ГБ | Добавлен: 17 мар 2018
Раздают: 2    Качают: 0
Скачать торрент
Скачать торрент
Описание торрента

СообщениеДобавлено: 17 мар 2018 

Дерево, которому мы причинили боль / To dendro pou pligoname


Перевод: Любительский (одноголосый) [viktor_2838]
Субтитры: Русские [Тарас Котов] (внешние)
Формат: DVDRip, AVI, XviD, AC3
Страна: Греция
Режиссер: Димос Авделиодис
Жанр: семейный, приключения, драма
Продолжительность: 01:05:20
Год выпуска: 1986

В ролях: Яннис Авделиодис, Никос Миотерис, Катерина Кириакоди, Димос Авделиодис, Такис Агорис, Яннис Колиарис, Вагелио Мисаилидоу, Костас Каламатоессис, Димитрис Сидератос, Стелиос Макриас

Описание: Время летних каникул, двое пятиклассников проводят лето в деревне. Они развлекаются, хулиганят, дружат, ссорятся, встречают свою первую любовь — словом, жизнь бьёт ключом.


Видео: 704x528 (4:3), 25 fps, XviD build 64 ~1799 kbps avg, 0.194 bit/pixel
Аудио #1: Русский: 48 kHz, AC3 Dolby Digital, 2/0 (L,R) ch, ~192 kbps avg [Любительский одноголосый]
Аудио #2: Греческий: 48 kHz, AC3 Dolby Digital, 2/0 (L,R) ch, ~192 kbps avg [Оригинал]

Формат : AVI
Формат/Информация : Audio Video Interleave
Размер файла : 1,00 Гбайт
Продолжительность : 1 ч. 5 м.
Общий поток : 2197 Кбит/сек
Программа кодирования : VirtualDubModRus 1.5.10.2 (build 2542/release)
Библиотека кодирования : VirtualDubMod build 2542/release

Видео
Идентификатор : 0
Формат : MPEG-4 Visual
Профиль формата : Advanced Simple@L5
Параметр BVOP формата : 2
Параметр QPel формата : Нет
Параметр GMC формата : Без точки перехода
Параметр матрицы формата : Default (H.263)
Идентификатор кодека : XVID
Идентификатор кодека/Подсказка : XviD
Продолжительность : 1 ч. 5 м.
Битрейт : 1799 Кбит/сек
Ширина : 704 пикселя
Высота : 528 пикселей
Соотношение сторон : 4:3
Частота кадров : 25,000 кадров/сек
Цветовое пространство : YUV
Субдискретизация насыщенности : 4:2:0
Битовая глубина : 8 бит
Тип развёртки : Прогрессивная
Метод сжатия : С потерями
Бит/(Пиксели*Кадры) : 0.194
Размер потока : 841 Мбайт (82%)
Библиотека кодирования : XviD 64

Аудио #1
Идентификатор : 1
Формат : AC-3
Формат/Информация : Audio Coding 3
Расширение режима : CM (complete main)
Параметр Endianness формата : Big
Идентификатор кодека : 2000
Продолжительность : 1 ч. 5 м.
Вид битрейта : Постоянный
Битрейт : 192 Кбит/сек
Каналы : 2 канала
Расположение каналов : Front: L R
Частота : 48,0 КГц
Метод сжатия : С потерями
Размер потока : 89,7 Мбайт (9%)
Выравнивание : Разделение по промежуткам
Продолжительность промежутка : 40 мс. (1,00 видеокадр)
Время предзагрузки промежутка : 500 мс.

Аудио #2
Идентификатор : 2
Формат : AC-3
Формат/Информация : Audio Coding 3
Расширение режима : CM (complete main)
Параметр Endianness формата : Big
Идентификатор кодека : 2000
Продолжительность : 1 ч. 5 м.
Вид битрейта : Постоянный
Битрейт : 192 Кбит/сек
Каналы : 2 канала
Расположение каналов : Front: L R
Частота : 48,0 КГц
Метод сжатия : С потерями
Размер потока : 89,7 Мбайт (9%)
Выравнивание : Разделение по промежуткам
Продолжительность промежутка : 40 мс. (1,00 видеокадр)
Время предзагрузки промежутка : 500 мс.











   Похожие торренты   Торрент   Размер 
В этой теме нет новых непрочитанных сообщений. Собачья жизнь / A Dog's Purpose (Лассе Халльстрём) [2017, фэнтези, драма, комедия, приключения, семейный, BDRip] 2хDUB (rus, ukr)+AVO / Детское

10 | 0

2.19 ГБ

В этой теме нет новых непрочитанных сообщений. Операция «Слон» / Operation Dumbo Drop (Саймон Уинсер ) [1995, комедия, приключения, семейный, военный, боевик, драма, HDRip] MVO / Детское

2 | 0

1.47 ГБ

В этой теме нет новых непрочитанных сообщений. Передряга / Tarapaty (Мария Анна Карловска) [2017, приключения, семейный, DVDRip] VO / Детское

7 | 0

1.47 ГБ

В этой теме нет новых непрочитанных сообщений. Чудо / Wonder (Стивен Чбоски) [2017, драма, семейный, BDRip] DUB / Детское

749 | 22

1.41 ГБ

В этой теме нет новых непрочитанных сообщений. Чудо / Wonder (Стивен Чбоски) [2017, драма, семейный, BDRip] DUB / Детское

91 | 7

746.91 МБ

В этой теме нет новых непрочитанных сообщений. Капитан Крюк / Hook (Стивен Спилберг ) [1991, фэнтези, приключения, семейный, комедия, BDRip] MVO / Детское

10 | 0

1.46 ГБ

В этой теме нет новых непрочитанных сообщений. Уличный кот по кличке Боб / A Street Cat Named Bob (Роджер Споттисвуд) [2016, драма, комедия, семейный, биография, BDRip] MVO / Детское

20 | 0

2.18 ГБ




Вы не можете начинать темы
Вы не можете отвечать на сообщения
Вы не можете редактировать свои сообщения
Вы не можете удалять свои сообщения
Вы не можете добавлять вложения

Перейти:  
 Вход
ppkBB3cker v.2 © 2008-2014 @ PPK
[ Time : 0.037s | 17 Queries | GZIP : Off ]

cron