img image001 image001 image001 image001 image001 image001 image001 image001 image001 image001 image001 image001 image001 image001 image001 image001

Planets Sun Sun Sun
Статистика раздачи
Автор: Снежана | Размер: 1.79 ГБ | Добавлен: 19 мар 2018
Раздают: 22    Качают: 8
Скачать торрент
Скачать торрент
Описание торрента

СообщениеДобавлено: 19 мар 2018 

Путеводная звезда / The Star


Перевод: Профессиональный (полное дублирование) Лицензия Blu-ray NOR
Cубтитры: Русские, английские
Формат: BDRip-AVC, MKV, H264, AC3
Страна: США
Режиссер: Тимоти Рекарт
Жанр: Мультфильм, семейный, приключения, фэнтези, комедия
Продолжительность: 01:26:06
Год выпуска: 2017
В ролях: Стивен Юн, Кигэн-Майкл Ки, Эйди Брайант, Джина Родригез, Закари Левай, Кристофер Пламмер, Винг Рэймс, Габриэль Иглесиас, Келли Кларксон, Энтони Андерсон

Описание: Маленький отважный ослик по имени Бо работает на мельнице, мечтая вырваться на свободу и повидать мир. И в один прекрасный день его желание исполняется! Бо видит в небе необычайно яркую звезду и решает отправиться по пути, который она указывает. Его ждут удивительные приключения и встреча с новыми друзьями, среди которых найдется милая овечка, голубь-шутник и даже троица верблюдов. Разношерстной компании путешественников предстоит стать невольными участниками и свидетелями самого волшебного и чудесного события — Рождества.



Видео: 1024x552 (1.85:1), 23.976 fps, AVC MPEG-4 (x264), , ~ 2 080 Kбит/сек , 0.153 bit/pixel

Аудио #1: Русский: 48 kHz, AC3 Dolby Digital, 3/2 (L,C,R,l,r) + LFE ch, ~ 448 kbps avg [Профессиональный (полное дублирование), Лицензия]
Аудио #2: Английский: 48 kHz, AC3 Dolby Digital, 3/2 (L,C,R,l,r) + LFE ch, ~ 448 kbps avg [Оригинал]





Общее
Уникальный идентификатор : 203690197811679500609988396679691132830 (0x993D4E1D49306D328852E883628E5F9E)
Полное имя : E:\Закачка-2\The.Star.2017.BDRip.AVC.ExKinoRay.mkv
Формат : Matroska
Версия формата : Version 2
Размер файла : 1,79 Гбайт
Продолжительность : 1 ч. 26 м.
Общий поток : 2982 Кбит/сек
Название фильма : The Star 2017 from ExKinoRay
Дата кодирования : UTC 2018-03-17 13:33:38
Программа кодирования : mkvmerge v5.6.0 ('Kenya Kane') built on May 27 2012 16:44:04
Библиотека кодирования : libebml v1.2.3 + libmatroska v1.3.0

Видео
Идентификатор : 1
Формат : AVC
Формат/Информация : Advanced Video Codec
Профиль формата :
Параметр CABAC формата : Да
Параметр ReFrames формата : 11 кадров
Идентификатор кодека : V_MPEG4/ISO/AVC
Продолжительность : 1 ч. 26 м.
Битрейт : 2080 Кбит/сек
Ширина : 1024 пикселя
Высота : 552 пикселя
Соотношение сторон : 1,85:1
Режим частоты кадров : Постоянный
Частота кадров : 23,976 (23976/1000) кадра/сек
Цветовое пространство : YUV
Субдискретизация насыщенности : 4:2:0
Битовая глубина : 8 бит
Тип развёртки : Прогрессивная
Бит/(Пиксели*Кадры) : 0.153
Размер потока : 1,22 Гбайт (68%)
Заголовок : Enigma
Библиотека кодирования : x264 core 152 r2851 ba24899
Настройки программы : cabac=1 / ref=11 / deblock=1:-2:-2 / analyse=0x3:0x113 / me=umh / subme=11 / psy=1 / psy_rd=1.00:0.05 / mixed_ref=1 / me_range=32 / chroma_me=1 / trellis=2 / 8x8dct=1 / cqm=0 / deadzone=21,11 / fast_pskip=0 / chroma_qp_offset=-3 / threads=12 / lookahead_threads=3 / sliced_threads=0 / nr=0 / decimate=0 / interlaced=0 / bluray_compat=0 / constrained_intra=0 / bframes=12 / b_pyramid=2 / b_adapt=2 / b_bias=0 / direct=3 / weightb=1 / open_gop=0 / weightp=2 / keyint=240 / keyint_min=23 / scenecut=40 / intra_refresh=0 / rc_lookahead=40 / rc=2pass / mbtree=0 / bitrate=2080 / ratetol=1.0 / qcomp=0.60 / qpmin=0 / qpmax=51 / qpstep=4 / cplxblur=20.0 / qblur=0.5 / vbv_maxrate=50000 / vbv_bufsize=62500 / nal_hrd=none / filler=0 / ip_ratio=1.40 / pb_ratio=1.30 / aq=1:1.00
Язык : English
Default : Да
Forced : Нет
Цветовой диапазон : Limited
Основные цвета : BT.709
Характеристики трансфера : BT.709
Коэффициенты матрицы : BT.709

Аудио #1
Идентификатор : 2
Формат : AC-3
Формат/Информация : Audio Coding 3
Расширение режима : CM (complete main)
Параметр Endianness формата : Big
Идентификатор кодека : A_AC3
Продолжительность : 1 ч. 26 м.
Вид битрейта : Постоянный
Битрейт : 448 Кбит/сек
Каналы : 6 каналов
Расположение каналов : Front: L C R, Side: L R, LFE
Частота : 48,0 КГц
Частота кадров : 31,250 кадров/сек (1536 spf)
Метод сжатия : С потерями
Размер потока : 276 Мбайт (15%)
Заголовок : Dub (Blu-Ray)
Язык : Russian
Default : Да
Forced : Нет

Аудио #2
Идентификатор : 3
Формат : AC-3
Формат/Информация : Audio Coding 3
Расширение режима : CM (complete main)
Параметр Endianness формата : Big
Идентификатор кодека : A_AC3
Продолжительность : 1 ч. 26 м.
Вид битрейта : Постоянный
Битрейт : 448 Кбит/сек
Каналы : 6 каналов
Расположение каналов : Front: L C R, Side: L R, LFE
Частота : 48,0 КГц
Частота кадров : 31,250 кадров/сек (1536 spf)
Метод сжатия : С потерями
Размер потока : 276 Мбайт (15%)
Язык : English
Default : Нет
Forced : Нет

Текст #1
Идентификатор : 4
Формат : UTF-8
Идентификатор кодека : S_TEXT/UTF8
Идентификатор кодека/Информация : UTF-8 Plain Text
Язык : Russian
Default : Нет
Forced : Нет

Текст #2
Идентификатор : 5
Формат : UTF-8
Идентификатор кодека : S_TEXT/UTF8
Идентификатор кодека/Информация : UTF-8 Plain Text
Язык : Ukrainian
Default : Нет
Forced : Нет

Текст #3
Идентификатор : 6
Формат : UTF-8
Идентификатор кодека : S_TEXT/UTF8
Идентификатор кодека/Информация : UTF-8 Plain Text
Заголовок : full
Язык : English
Default : Нет
Forced : Нет

Текст #4
Идентификатор : 7
Формат : UTF-8
Идентификатор кодека : S_TEXT/UTF8
Идентификатор кодека/Информация : UTF-8 Plain Text
Заголовок : SDH
Язык : English
Default : Нет
Forced : Нет

Меню
00:00:00.000 : en:00:00:00.000
00:04:20.385 : en:00:04:20.385
00:08:07.112 : en:00:08:07.112
00:13:11.290 : en:00:13:11.290
00:18:07.753 : en:00:18:07.753
00:21:29.246 : en:00:21:29.246
00:25:59.224 : en:00:25:59.224
00:30:26.825 : en:00:30:26.825
00:34:41.997 : en:00:34:41.997
00:39:09.722 : en:00:39:09.722
00:47:09.910 : en:00:47:09.910
00:52:29.772 : en:00:52:29.772
00:57:39.414 : en:00:57:39.414
01:04:37.874 : en:01:04:37.874
01:09:35.171 : en:01:09:35.171
01:13:40.875 : en:01:13:40.875






   Похожие торренты   Торрент   Размер 
В этой теме нет новых непрочитанных сообщений. Путеводная звезда / The Star (Тимоти Рекарт) [2017, Мультфильм, семейный, приключения, фэнтези, комедия, BDRip 720p] DUB / Мультфильмы (HD/BD Video)

95 | 8

4.32 ГБ

В этой теме нет новых непрочитанных сообщений. Путеводная звезда / The Star (Тимоти Рекарт) [2017, Мультфильм, семейный, приключения, фэнтези, комедия, BDRip 1080p] DUB / Мультфильмы (HD/BD Video)

35 | 7

7.38 ГБ

В этой теме нет новых непрочитанных сообщений. Путеводная звезда / The Star (Тимоти Рекарт) [2017, Мультфильм, семейный, приключения, фэнтези, комедия, BDRip] DUB

13 | 6

1.37 ГБ

В этой теме нет новых непрочитанных сообщений. Тайна Коко / Coco (Ли Анкрич, Эдриан Молина) [2017, мультфильм, фэнтези, комедия, приключения, семейный, BDRip 1080p] DUB / Мультфильмы (HD/BD Video)

78 | 6

6.34 ГБ

В этой теме нет новых непрочитанных сообщений. Тайна Коко / Coco (Ли Анкрич, Эдриан Молина) [2017, мультфильм, фэнтези, комедия, приключения, семейный, BDRip 720p] DUB / Мультфильмы (HD/BD Video)

71 | 5

5.23 ГБ

В этой теме нет новых непрочитанных сообщений. Тайна Коко / Coco (Эдриан Молина, Ли Анкрич) [2017, мультфильм, фэнтези, комедия, детектив, приключения, семейный, BDRip 1080p] DUB [Line] / Мультфильмы (HD/BD Video)

19 | 0

8.64 ГБ

В этой теме нет новых непрочитанных сообщений. Тайна Коко / Coco (Эдриан Молина, Ли Анкрич) [2017, мультфильм, фэнтези, комедия, детектив, приключения, семейный, BDRip 1080p] DUB [iTunes] / Мультфильмы (HD/BD Video)

19 | 0

8.82 ГБ




Вы не можете начинать темы
Вы не можете отвечать на сообщения
Вы не можете редактировать свои сообщения
Вы не можете удалять свои сообщения
Вы не можете добавлять вложения

Перейти:  
 Вход
ppkBB3cker v.2 © 2008-2014 @ PPK
[ Time : 0.035s | 18 Queries | GZIP : Off ]

cron