img image001 image001 image001 image001 image001 image001 image001 image001 image001 image001 image001 image001 image001 image001 image001 image001

Planets Sun Sun Sun
Статистика раздачи
Автор: Снежана | Размер: 1.58 ГБ | Добавлен: 20 мар 2018
Раздают: 2    Качают: 6
Скачать торрент
Скачать торрент
Описание торрента

СообщениеДобавлено: 20 мар 2018 

Приключения Эвоков / The Ewok Adventure


Перевод: Профессиональный (многоголосый закадровый), субтитры: Английские [отключаемые]
Формат: DVDRip-AVC, MKV, H.264, AC3
Страна: США
Режиссер: Джон Корти
Жанр: Фантастика, Фэнтези, Приключения, Семейный
Продолжительность: 01:36:54
Год выпуска: 1984
В ролях: Эрик Уолкер, Уорвик Дэвис, Финола Флэнаган, Гай Бойд, Обри Миллер, Берл Айвз, Дэниэл Фришмен, Дебби Ли Кэррингтон, Тони Кокс, Кевин Томпсон

Описание: После аварийной посадки «семейного» звездолета на Эндоре родители подростка Мэйса и его сестренки Синдел потеряли детей, а дети — родителей. Вместе с несколькими лесными жителями — эвоками Мэйс и Синдел, не мешкая, отправились на поиски папы и мамы. С какими только чудовищами детям ни пришлось сразиться на долгом и трудном пути!..


Видео: 720x544 (4:3), 23,976 fps, AVC MPEG-4, ~ 1950 Кбит/сек, 0.208 bit/pixel
Аудио #1: Русский: 48 kHz, AC3 2ch (L,R) ~192 kbps [Профессиональный (многоголосый, закадровый)]
Аудио #2: Английский: 48 kHz, AC3 2ch (L,R) ~192 kbps [Оригинал]

Хотя «Эвоки: Караван смельчаков» относится ко вселенной Звездных Войн, в нем присутствует много, что заимствовано из нашего мира, например пони. Вопрос «Откуда они взялись?» не раз задавался поклонниками Саги, и на официальном сайте Звездных Войн говорилось, что животные носят иные, отличные от земных, названия, такие как бордоки и гуапас. Имя одного из главных героев — Мейс, что, вероятно связано с тем, что некогда Дж. Лукас хотел сделать главным героем своих фильмов Мейса. Впоследствии в Эпизоде I Скрытая Угроза вновь было использовано это имя, но уже совсем для другого персонажа. Саундтрек к оригинальной трилогии Звездных Войн написал Джон Уильямс, а в «Караване» звучит музыка П. Берштейна. Однако одна знакомая мелодия — тема эвоков — из Эпизода VI Возвращение джедая звучит в нескольких сценах.






Формат : Matroska
Версия формата : Version 4 / Version 2
Размер файла : 1,58 Гбайт
Продолжительность : 1 ч. 36 м.
Общий поток : 2336 Кбит/сек
Дата кодирования : UTC 2018-03-17 08:22:48
Программа кодирования : mkvmerge v7.9.0 ('Birds') 64bit
Библиотека кодирования : libebml v1.3.1 + libmatroska v1.4.2

Видео
Идентификатор : 1
Формат : AVC
Формат/Информация : Advanced Video Codec
Профиль формата :
Настройки формата : CABAC / 12 Ref Frames
Параметр CABAC формата : Да
Параметр RefFrames формата : 12 кадров
Идентификатор кодека : V_MPEG4/ISO/AVC
Продолжительность : 1 ч. 36 м.
Битрейт : 1950 Кбит/сек
Ширина : 720 пикселей
Высота : 544 пикселя
Соотношение сторон : 4:3
Режим частоты кадров : Постоянный
Частота кадров : 23,976 (24000/1001) кадра/сек
Цветовое пространство : YUV
Субдискретизация насыщенности : 4:2:0
Битовая глубина : 8 бит
Тип развёртки : Прогрессивная
Бит/(Пиксели*Кадры) : 0.208
Размер потока : 1,32 Гбайт (83%)
Заголовок : The Ewok Adventure
Библиотека кодирования : x264 core 146 r2538 121396c
Настройки программы : cabac=1 / ref=12 / deblock=1:-1:-1 / analyse=0x3:0x113 / me=umh / subme=10 / psy=1 / psy_rd=1.00:0.10 / mixed_ref=1 / me_range=32 / chroma_me=1 / trellis=2 / 8x8dct=1 / cqm=0 / deadzone=21,11 / fast_pskip=0 / chroma_qp_offset=-3 / threads=6 / lookahead_threads=1 / sliced_threads=0 / nr=0 / decimate=0 / interlaced=0 / bluray_compat=0 / constrained_intra=0 / bframes=7 / b_pyramid=2 / b_adapt=2 / b_bias=0 / direct=3 / weightb=1 / open_gop=0 / weightp=2 / keyint=250 / keyint_min=25 / scenecut=40 / intra_refresh=0 / rc_lookahead=60 / rc=2pass / mbtree=1 / bitrate=1950 / ratetol=1.0 / qcomp=0.60 / qpmin=0 / qpmax=69 / qpstep=4 / cplxblur=20.0 / qblur=0.5 / vbv_maxrate=14000 / vbv_bufsize=14000 / nal_hrd=none / filler=0 / ip_ratio=1.40 / aq=1:1.00
Язык : English
Default : Да
Forced : Нет

Аудио #1
Идентификатор : 2
Формат : AC-3
Формат/Информация : Audio Coding 3
Идентификатор кодека : A_AC3
Продолжительность : 1 ч. 36 м.
Вид битрейта : Постоянный
Битрейт : 192 Кбит/сек
Каналы : 2 канала
Расположение каналов : Front: L R
Частота : 48,0 КГц
Частота кадров : 31,250 кадров/сек (1536 SPF)
Битовая глубина : 16 бит
Метод сжатия : С потерями
Размер потока : 133 Мбайт (8%)
Заголовок : Многоголосый, закадровый
Язык : Russian
ServiceKind/String : Complete Main
Default : Да
Forced : Нет

Аудио #2
Идентификатор : 3
Формат : AC-3
Формат/Информация : Audio Coding 3
Идентификатор кодека : A_AC3
Продолжительность : 1 ч. 36 м.
Вид битрейта : Постоянный
Битрейт : 192 Кбит/сек
Каналы : 2 канала
Расположение каналов : Front: L R
Частота : 48,0 КГц
Частота кадров : 31,250 кадров/сек (1536 SPF)
Битовая глубина : 16 бит
Метод сжатия : С потерями
Размер потока : 133 Мбайт (8%)
Заголовок : Оригинал
Язык : English
ServiceKind/String : Complete Main
Default : Нет
Forced : Нет

Текст
Идентификатор : 4
Формат : UTF-8
Идентификатор кодека : S_TEXT/UTF8
Идентификатор кодека/Информация : UTF-8 Plain Text
Продолжительность : 1 ч. 34 м.
Битрейт : 21 бит/сек
ElementCount : 554
Размер потока : 14,9 Кбайт (0%)
Заголовок : SRT
Язык : English
Default : Нет
Forced : Нет



   Похожие торренты   Торрент   Размер 
В этой теме нет новых непрочитанных сообщений. Эвоки: Битва за Эндор / Ewoks: The Battle for Endor (Джим Уит, Кен Уит) [1985, Фантастика, Фэнтези, Приключения, Семейный, DVDRip-AVC] MVO+AVO

2 | 0

1.71 ГБ

В этой теме нет новых непрочитанных сообщений. Поул Позиция / Pole Position (Бернард Дейрьес) [1984, Приключения, Семейный, Спорт, Фантастика, DVDRip-AVC] VO

0 | 0

2.12 ГБ

В этой теме нет новых непрочитанных сообщений. Излом времени / A Wrinkle in Time (Ава ДюВерней) [2018, фантастика, фэнтези, приключения, семейный, HDRip] DUB

95 | 2

1.37 ГБ

В этой теме нет новых непрочитанных сообщений. Излом времени / A Wrinkle in Time (Ава ДюВерней) [2018, фантастика, фэнтези, приключения, семейный, HDRip] DUB

42 | 5

2.05 ГБ

В этой теме нет новых непрочитанных сообщений. Излом времени / A Wrinkle in Time (Ава ДюВерней) [2018, фантастика, фэнтези, приключения, семейный, HDRip] DUB

26 | 0

2.05 ГБ

В этой теме нет новых непрочитанных сообщений. Излом времени / A Wrinkle in Time (Ава ДюВерней) [2018, фантастика, фэнтези, приключения, семейный, BDRip-AVC] DUB

529 | 14

1.46 ГБ

В этой теме нет новых непрочитанных сообщений. Излом времени / A Wrinkle in Time (Ава ДюВерней) [2018, фантастика, фэнтези, приключения, семейный, BDRip] DUB

128 | 5

1.45 ГБ




Вы не можете начинать темы
Вы не можете отвечать на сообщения
Вы не можете редактировать свои сообщения
Вы не можете удалять свои сообщения
Вы не можете добавлять вложения

Перейти:  
 Вход
ppkBB3cker v.2 © 2008-2014 @ PPK
[ Time : 0.022s | 18 Queries | GZIP : Off ]

cron