img image001 image001 image001 image001 image001 image001 image001 image001 image001 image001 image001 image001 image001 image001 image001 image001

Planets Sun Sun Sun
Статистика раздачи
Автор: Снежана | Размер: 742.02 МБ | Добавлен: 20 мар 2018
Раздают: 0    Качают: 0
Скачать торрент
Скачать торрент
Описание торрента

СообщениеДобавлено: 20 мар 2018 

Осада / The Siege

Перевод: Профессиональный (полное дублирование)
Субтитры: Русские
Формат: WEB-DLRip-AVC, MKV, H.264, AAC
Страна: США
Режиссер: Эдвард Цвик
Жанр: боевик, триллер
Продолжительность: 01:56:05
Год выпуска: 1998

В ролях: Дензел Вашингтон, Аннетт Бенинг, Брюс Уиллис, Тони Шэлуб, Сами Буажила, Ахмед Бен Ларби, Мосле Мохамед, Лианна Пай, Марк Вэлли, Джек Гуолтни

Описание: Когда в Бруклине взлетает на воздух автобус и на улицах Нью-Йорка разворачивается кровавый террор, Хаб — Хаббарт, глава Объединенного Антитеррористического Подразделения ФБР получает задание задержать террористов и предъявить им обвинение. Элиза Крафт — тайный оперативный агент ЦРУ. Она обладает ценными источниками информации в среде американцев арабского происхождения и тесно связана с ними.
Хаб и Элиза работают вместе, объединившись для совместной борьбы против террористической группы. Но этого оказывается недостаточно. Требования общественности обеспечить безопасность граждан вынуждают президента США объявить чрезвычайное положение и обратиться за помощью к армии. Генерал Уильям Деверо решительно берется за дело по наведению военного порядка.




Видео: 722x406 (16:9), 23.976 fps, AVC MPEG-4 (H.264), ~830 kbps, 0.118 bit/pixel
Аудио: 48 kHz, AАС-HE, 2 ch, ~64 kbps

Format : Matroska
Format version : Version 4 / Version 2
File size : 742 MiB
Duration : 1 h 56 min
Overall bit rate : 894 kb/s
Movie name : Осада
Encoded date : UTC 2018-03-04 18:37:25
Writing application : mkvmerge v21.0.0 ('Tardigrades Will Inherit The Earth') 64-bit
Writing library : libebml v1.3.5 + libmatroska v1.4.8
Attachments : poster.jpg

Video
ID : 1
Format : AVC
Format/Info : Advanced Video Codec
Format profile :
Format settings : CABAC / 11 Ref Frames
Format settings, CABAC : Yes
Format settings, ReFrames : 11 frames
Codec ID : V_MPEG4/ISO/AVC
Duration : 1 h 55 min
Bit rate : 830 kb/s
Width : 722 pixels
Height : 406 pixels
Display aspect ratio : 16:9
Frame rate mode : Constant
Frame rate : 23.976 (24000/1001) FPS
Color space : YUV
Chroma subsampling : 4:2:0
Bit depth : 8 bits
Scan type : Progressive
Bits/(Pixel*Frame) : 0.118
Stream size : 688 MiB (93%)
Title : RIP_BY_-=DoMiNo=-
Writing library : x264 core 155 r2901M 7d0ff22
Encoding settings : cabac=1 / ref=11 / deblock=1:-3:-3 / analyse=0x3:0x133 / me=umh / subme=11 / psy=1 / psy_rd=1.00:0.03 / mixed_ref=1 / me_range=32 / chroma_me=1 / trellis=2 / 8x8dct=1 / cqm=0 / deadzone=21,11 / fast_pskip=1 / chroma_qp_offset=-3 / threads=6 / lookahead_threads=1 / sliced_threads=0 / nr=0 / decimate=1 / interlaced=0 / bluray_compat=0 / constrained_intra=0 / bframes=12 / b_pyramid=2 / b_adapt=2 / b_bias=0 / direct=3 / weightb=1 / open_gop=0 / weightp=2 / keyint=240 / keyint_min=24 / scenecut=40 / intra_refresh=0 / rc_lookahead=60 / rc=2pass / mbtree=1 / bitrate=830 / ratetol=1.0 / qcomp=0.60 / qpmin=0 / qpmax=69 / qpstep=4 / cplxblur=20.0 / qblur=0.5 / ip_ratio=1.40 / aq=1:1.00
Default : Yes
Forced : No

Audio
ID : 2
Format : AAC
Format/Info : Advanced Audio Codec
Format profile : HE-AAC / LC
Format settings : Explicit
Codec ID : A_AAC-2
Duration : 1 h 56 min
Bit rate : 62.7 kb/s
Channel(s) : 2 channels
Channel positions : Front: L R
Sampling rate : 48.0 kHz / 24.0 kHz
Frame rate : 23.438 FPS (1024 SPF)
Compression mode : Lossy
Stream size : 52.0 MiB (7%)
Title : DUB
Language : Russian
Default : Yes
Forced : No

Text
ID : 3
Format : UTF-8
Codec ID : S_TEXT/UTF8
Codec ID/Info : UTF-8 Plain Text
Duration : 1 h 47 min
Bit rate : 116 b/s
Count of elements : 1540
Stream size : 91.7 KiB (0%)
Language : Russian
Default : Yes
Forced : No












   Похожие торренты   Торрент   Размер 
В этой теме нет новых непрочитанных сообщений. Гнев / Man on Fire (Тони Скотт) [Open Matte] [2004, боевик, триллер, драма, криминал, WEB-DLRip] DUB / Боевики /Action

29 | 0

2.18 ГБ

В этой теме нет новых непрочитанных сообщений. Сломанная стрела / Broken Arrow (Джон Ву) [Open Matte] [1996, боевик, триллер, приключения, WEB-DLRip-AVC] MVO / Боевики /Action

8 | 0

744.87 МБ

В этой теме нет новых непрочитанных сообщений. Гнев / Man on Fire (Тони Скотт) [Open Matte] [2004, боевик, триллер, драма, криминал, WEB-DLRip] DUB / Боевики /Action

39 | 2

1.45 ГБ

В этой теме нет новых непрочитанных сообщений. Ограбление по-итальянски / The Italian Job (Ф. Гэри Грей) [Open Matte] [2003, боевик, триллер, криминал, WEB-DLRip] DUB / Боевики /Action

10 | 0

1.45 ГБ

В этой теме нет новых непрочитанных сообщений. Ограбление по-итальянски / The Italian Job (Ф. Гэри Грей) [Open Matte] [2003, боевик, триллер, криминал, WEB-DLRip-AVC] DUB / Боевики /Action

11 | 0

2.18 ГБ

В этой теме нет новых непрочитанных сообщений. От колыбели до могилы / Cradle 2 the Grave [Open Matte] (Анджей Бартковяк) [2003, боевик, триллер, драма, криминал, WEB-DLRip-AVC] MVO / Боевики /Action

4 | 0

745.73 МБ

В этой теме нет новых непрочитанных сообщений. От колыбели до могилы / Cradle 2 the Grave [Open Matte] (Анджей Бартковяк) [2003, боевик, триллер, драма, криминал, WEB-DLRip-AVC] MVO / Боевики /Action

4 | 0

1.45 ГБ




Вы не можете начинать темы
Вы не можете отвечать на сообщения
Вы не можете редактировать свои сообщения
Вы не можете удалять свои сообщения
Вы не можете добавлять вложения

Перейти:  
 Вход
ppkBB3cker v.2 © 2008-2014 @ PPK
[ Time : 0.032s | 16 Queries | GZIP : Off ]

cron