img image001 image001 image001 image001 image001 image001 image001 image001 image001 image001 image001 image001 image001 image001 image001 image001

Planets Sun Sun Sun
Статистика раздачи
Автор: Снежана | Размер: 849.66 МБ | Добавлен: 23 апр 2018
Раздают: 2    Качают: 0
Скачать торрент
Скачать торрент
Описание торрента

СообщениеДобавлено: 23 апр 2018 

Бесогон ТВ. Сколько должно ещё сгореть людей? (Эфир от 20.04.2018 )

Перевод: Не требуется, cубтитры: отсутствуют
Формат: WEBRip 1080p, MKV, H.264, AAC
Страна: Россия
Режиссер: Никита Михалков
Жанр: телепередача, общественно-политическая программа
Продолжительность: 00:46:43
Год выпуска: 2018

Описание: Авторская Программа Никиты Михалкова Бесогон TV на канале Россия 24 выходит 1 или 2 раза в месяц.
Цель этого авторского канала, - поделится мыслями и опровергнуть домыслы появляющиеся в сети и не отражающие истинного мнения автора передачи, - Никиты Михалкова о том или ином событии.
Темы выпусков самые разные, но доминируют политика и общество.

В этом выпуске авторской программы «БесогонТВ» Никита Михалков предлагает поговорить о страшной трагедии в Кемерове. Пожар в ТРЦ «Зимняя вишня» унес жизни 64 человек, включая 41 ребенка. Это общее горе всей страны. Почему последствия трагедии настолько масштабны? Можно ли было предотвратить гибель людей? Какова основная причина пожара в торговом центре? Преступная халатность? Коррупция? Безответственность? Почему при обсуждении случившегося политические требования вытесняют главные вопросы – о том, как организовывалось спасение людей? Почему появилась информация о преувеличенном числе погибших, и кому эта информация была выгодна?


Видео: 1920x1080 (16:9), 25 fps, AVC MPEG-4 (High@L4) ~2414 kbps, 0.04 bit/pixel
Аудио: 44.1 kHz, AAC, 2 ch, ~126 kbps


General
Unique ID : 176363300036043032982647023892701075429 (0x84AE56083A277BDC726BF3D8FE3B57E5)
Complete name : D:БесогонТВ Сколько должно ещё сгореть людей.mkv
Format : Matroska
Format version : Version 4 / Version 2
File size : 850 MiB
Duration : 46 min 43 s
Overall bit rate : 2 542 kb/s
Encoded date : UTC 2018-04-20 16:41:19
Writing application : mkvmerge v22.0.0 ('At The End Of The World') 64-bit
Writing library : libebml v1.3.5 + libmatroska v1.4.8
Cover : Yes
Attachments : cover.png

Video
ID : 1
Format : AVC
Format/Info : Advanced Video Codec
Format profile : High@L4
Format settings : CABAC / 2 Ref Frames
Format settings, CABAC : Yes
Format settings, ReFrames : 2 frames
Codec ID : V_MPEG4/ISO/AVC
Duration : 46 min 43 s
Bit rate : 2 414 kb/s
Width : 1 920 pixels
Height : 1 080 pixels
Display aspect ratio : 16:9
Frame rate mode : Constant
Frame rate : 25.000 FPS
Color space : YUV
Chroma subsampling : 4:2:0
Bit depth : 8 bits
Scan type : Progressive
Bits/(Pixel*Frame) : 0.047
Stream size : 807 MiB (95%)
Language : Russian
Default : Yes
Forced : No
Color range : Limited
Color primaries : BT.709
Transfer characteristics : BT.709
Matrix coefficients : BT.709

Audio
ID : 2
Format : AAC
Format/Info : Advanced Audio Codec
Format profile : LC
Codec ID : A_AAC-2
Duration : 46 min 43 s
Bit rate : 126 kb/s
Channel(s) : 2 channels
Channel positions : Front: L R
Sampling rate : 44.1 kHz
Frame rate : 43.066 FPS (1024 SPF)
Compression mode : Lossy
Stream size : 42.0 MiB (5%)
Language : Russian
Default : Yes
Forced : No







   Похожие торренты   Торрент   Размер 
В этой теме нет новых непрочитанных сообщений. Бесогон ТВ. Олимпиада. О спорт, ты – мир! Или война? (Эфир от 10.03.2018) (Никита Михалков) [2018, телепередача, общественно-политическая программа, WEBRip 1080p]

4 | 0

312.8 МБ

В этой теме нет новых непрочитанных сообщений. Бесогон ТВ. Голливуд как источник мужества (Никита Михалков) [2018, телепередача, общественно-политическая программа, WEBRip 1080p]

2 | 0

402.96 МБ

В этой теме нет новых непрочитанных сообщений. Бесогон ТВ. Иллюстрация люстрации (Эфир от 02.02.2018) (Никита Михалков) [2018, документальный, авторская, информационно-аналитическая программа, WEBRip 1080p]

17 | 3

237.83 МБ

В этой теме нет новых непрочитанных сообщений. Бесогон ТВ. Письмо товарищу Сталину (Эфир от 16.02.2018) (Никита Михалков) [2018, документальный, авторская, информационно-аналитическая программа, WEBRip 1080p]

4 | 3

347.43 МБ

В этой теме нет новых непрочитанных сообщений. Специальный репортаж. Политическая химия (Эфир от 23.04.2018) (ТК ТВЦ) [2018, документальный, SATRip]

25 | 0

354.5 МБ

В этой теме нет новых непрочитанных сообщений. Кто в Доме хозяин? (Эфир от 04.02.2018) (НТВ) [2018, документальный, телепередача, SATRip]

2 | 0

559.44 МБ

В этой теме нет новых непрочитанных сообщений. Улика из прошлого. Тайна Апокалипсиса: сколько нам осталось жить? (Эфир от 17.04.2018) (ТК Звезда) [2018, документальный, SATRip]

8 | 0

494.51 МБ




Вы не можете начинать темы
Вы не можете отвечать на сообщения
Вы не можете редактировать свои сообщения
Вы не можете удалять свои сообщения
Вы не можете добавлять вложения

Перейти:  
 Вход
ppkBB3cker v.2 © 2008-2014 @ PPK
[ Time : 0.030s | 16 Queries | GZIP : Off ]

cron