img image001 image001 image001 image001 image001 image001 image001 image001 image001 image001 image001 image001 image001 image001 image001 image001

Planets Sun Sun Sun
Статистика раздачи
Автор: Снежана | Размер: 16.08 ГБ | Добавлен: 23 апр 2018
Раздают: 36    Качают: 10
Скачать торрент
Скачать торрент
Описание торрента

СообщениеДобавлено: 23 апр 2018 

Берёзка (1-16 серии из 16)

Перевод: Не требуется, cубтитры: отсутствуют
Формат: WEB-DL, MKV, H.264, AC3
Страна: Россия
Режиссер: Александр Баранов
Жанр: Мелодрама
Всего серий: 16
Продолжительность: 16 х ~ 00:52:00
Год выпуска: 2018
В ролях: Любовь Константинова, Ольга Бобкова, Алёна Коломина, Пётр Рыков, Михаил Пшеничный, Марк Богатырёв, Анастасия Стежко, Дмитрий Щербина, Лидия Вележева, Алексей Серебряков, Мария Порошина, Надежда Маркина, Сергей Шакуров, Евгений Сидихин, Михаил Ефремов, Нина Усатова, Дмитрий Готсдинер, Роман Ладнев, Антон Феоктистов, Юлия Мельникова, Сергей Уусталу, Сергей Кузьменко, Мартин Зоруба, Анар Халилов, Александр Бобров (IV), Дмитрий Корявов, Александр Асташёнок, Евгения Каверау, Александр Никитин (III), Анастасия Крылова (II), Татьяна Чердынцева, Майя Горбань, Алексей Бычин, Вячеслав Белков (II)
Описание:
Вот уже 70 лет ансамбль «Березка» завораживает зрителей диковинным «плывущим» шагом, создающим впечатление, будто девушки стоят на месте, а сцена под ними вращается. Талантливым танцовщицам — дерзкой провинциалке Варе, амбициозной красавице из Таллинна Эдите и коренной москвичке Лене — предстоит пройти непростой путь к большой сцене, невзирая на череду взлётов и падений.



Видео: 1280x720 (16:9), 25.00 fps, AVC H264, ~2569 kbps avg, ~0.112 bit/pixel
Аудио: AC3 Dolby Digital, 48.0 kHz, 2/0 (L,R) ch, 192 kbps

Доп. информация:
Без рекламы!

General
Unique ID : 197222296427068077956580108184424082000 (0x945FA1F4A0A8F95FA4A64646C374EA50)
Complete name : D:\Берёзка.2018.WEB-DL (720p).by.Nicodem.Files-x\01.Берёзка.2018.WEB-DL (720p).by.Nicodem.Files-x.mkv
Format : Matroska
Format version : Version 4 / Version 2
File size : 1.01 GiB
Duration : 52mn 26s
Overall bit rate : 2 755 Kbps
Encoded date : UTC 2018-04-11 10:07:09
Writing application : mkvmerge v6.1.0 ('Old Devil') built on Mar 2 2013 14:32:37
Writing library : libebml v1.3.0 + libmatroska v1.4.0

Video
ID : 1
Format : AVC
Format/Info : Advanced Video Codec
Format profile :
Format settings, CABAC : Yes
Format settings, ReFrames : 4 frames
Codec ID : V_MPEG4/ISO/AVC
Duration : 52mn 26s
Bit rate : 2 569 Kbps
Width : 1 280 pixels
Height : 720 pixels
Display aspect ratio : 16:9
Frame rate mode : Constant
Frame rate : 25.000 fps
Color space : YUV
Chroma subsampling : 4:2:0
Bit depth : 8 bits
Scan type : Progressive
Bits/(Pixel*Frame) : 0.112
Stream size : 941 MiB (91%)
Writing library : x264 core 142
Encoding settings : cabac=1 / ref=3 / deblock=1:0:0 / analyse=0x3:0x113 / me=hex / subme=7 / psy=1 / psy_rd=1.00:0.00 / mixed_ref=1 / me_range=16 / chroma_me=1 / trellis=1 / 8x8dct=1 / cqm=0 / deadzone=21,11 / fast_pskip=1 / chroma_qp_offset=-2 / threads=36 / lookahead_threads=5 / sliced_threads=0 / nr=0 / decimate=1 / interlaced=0 / bluray_compat=0 / constrained_intra=0 / bframes=6 / b_pyramid=2 / b_adapt=1 / b_bias=0 / direct=1 / weightb=1 / open_gop=0 / weightp=2 / keyint=50 / keyint_min=26 / scenecut=0 / intra_refresh=0 / rc_lookahead=40 / rc=2pass / mbtree=1 / bitrate=2569 / ratetol=1.0 / qcomp=0.60 / qpmin=0 / qpmax=69 / qpstep=4 / cplxblur=20.0 / qblur=0.5 / vbv_maxrate=3854 / vbv_bufsize=10279 / nal_hrd=none / filler=0 / ip_ratio=1.40 / aq=1:1.00
Default : Yes
Forced : No

Audio
ID : 2
Format : AC-3
Format/Info : Audio Coding 3
Mode extension : CM (complete main)
Format settings, Endianness : Big
Codec ID : A_AC3
Duration : 52mn 26s
Bit rate mode : Constant
Bit rate : 192 Kbps
Channel count : 2 channels
Channel positions : Front: L R
Sampling rate : 48.0 KHz
Bit depth : 16 bits
Compression mode : Lossy
Delay relative to video : -80ms
Stream size : 72.0 MiB (7%)
Language : unknown
Default : Yes
Forced : No








   Похожие торренты   Торрент   Размер 
В этой теме нет новых непрочитанных сообщений. Берёзка (1-16 серии из 16) (Александр Баранов) [2018, мелодрама, WEB-DL 1080p]

50 | 18

30.89 ГБ

В этой теме нет новых непрочитанных сообщений. Берёзка (1-6 серии из 16) (Александр Баранов) [2018, Мелодрама, WEB-DL 720p]

0 | 2

9.79 ГБ

В этой теме нет новых непрочитанных сообщений. Берёзка (1-16 серии из 16) (Александр Баранов (II)) [2018, мелодрама, WEB-DLRip]

205 | 36

10.16 ГБ

В этой теме нет новых непрочитанных сообщений. Берёзка (1-14 серии из 16) (Александр Баранов) [2018, мелодрама, WEB-DL 1080p]

9 | 25

26.92 ГБ

В этой теме нет новых непрочитанных сообщений. Берёзка (1-14 серии из 16) (Александр Баранов) [2018, Мелодрама, WEB-DL 720p]

4 | 11

22.73 ГБ

В этой теме нет новых непрочитанных сообщений. Берёзка (1-4 серии из 16) (Александр Баранов) [2018, Мелодрама, WEB-DL 720p]

0 | 0

6.53 ГБ

В этой теме нет новых непрочитанных сообщений. Берёзка (1-6 серии из 16) (Александр Баранов (II)) [2018, мелодрама, WEB-DLRip]

20 | 7

3.81 ГБ




Вы не можете начинать темы
Вы не можете отвечать на сообщения
Вы не можете редактировать свои сообщения
Вы не можете удалять свои сообщения
Вы не можете добавлять вложения

Перейти:  
 Вход
ppkBB3cker v.2 © 2008-2014 @ PPK
[ Time : 0.039s | 17 Queries | GZIP : Off ]

cron