img image001 image001 image001 image001 image001 image001 image001 image001 image001 image001 image001 image001 image001 image001 image001 image001

Planets Sun Sun Sun
Статистика раздачи
Автор: Снежана | Размер: 2.84 ГБ | Добавлен: 23 апр 2018
Раздают: 60    Качают: 6
Скачать торрент
Скачать торрент
Описание торрента

СообщениеДобавлено: 23 апр 2018 

Бегущий в лабиринте: Лекарство от смерти / Maze Runner: The Death Cure

Перевод: Профессиональный (полное дублирование) iTunes
Субтитры: Русские, английские
Формат: BDRip-AVC, MKV, H.264, AC3
Страна: США
Режиссер: Уэс Болл
Жанр: фантастика, боевик, триллер
Продолжительность: 02:23:52
Год выпуска: 2018

В ролях: Дилан О’Брайен, Ли Ги-хон, Кая Скоделарио, Томас Сэнгстер, Декстер Дарден, Уилл Поултер, Джейкоб Лофленд, Роза Салазар, Джанкарло Эспозито, Патришия Кларксон

Описание: Томас возглавляет отряд выживших глейдеров, чтобы выполнить последнюю и самую опасную миссию. Ради спасения своих друзей они должны проникнуть в легендарный Последний город, смертоносный лабиринт, контролируемый ПОРОКом. Каждый, кто выживет там, наконец-то получит ответы на все вопросы, которые мучили глейдеров с момента попадания в лабиринт.



Видео: 1024x428 (2.40:1), 23.976 fps, AVC MPEG-4 (H.264), ~1988 kbps, 0.189 bit/pixel
Аудио #1: Русский: 48 kHz, AC3 Dolby Digital, 6 ch, ~384 kbps [Профессиональный (полное дублирование)]
Аудио #2: Английский: 48 kHz, AC3 Dolby Digital, 6 ch, ~448 kbps [Оригинал]

Формат : Matroska
Версия формата : Version 2
Размер файла : 2,84 Гбайт
Продолжительность : 2 ч. 23 м.
Общий поток : 2826 Кбит/сек
Название фильма : Maze.Runner.The.Death.Cure.2018 #TorpedoUK#
Дата кодирования : UTC 2018-04-20 14:44:09
Программа кодирования : mkvmerge v7.8.0 ('River Man') 32bit built on Apr 3 2015 12:11:22
Библиотека кодирования : libebml v1.3.1 + libmatroska v1.4.2
Обложка : Yes
Attachments : small_cover.jpg / small_cover_land.jpg / cover.jpg / cover_land.jpg

Видео
Идентификатор : 1
Формат : AVC
Формат/Информация : Advanced Video Codec
Профиль формата :
Параметр CABAC формата : Да
Параметр ReFrames формата : 10 кадров
Идентификатор кодека : V_MPEG4/ISO/AVC
Продолжительность : 2 ч. 23 м.
Битрейт : 1988 Кбит/сек
Ширина : 1024 пикселя
Высота : 428 пикселей
Соотношение сторон : 2,40:1
Режим частоты кадров : Постоянный
Частота кадров : 23,976 (24000/1001) кадра/сек
Цветовое пространство : YUV
Субдискретизация насыщенности : 4:2:0
Битовая глубина : 8 бит
Тип развёртки : Прогрессивная
Бит/(Пиксели*Кадры) : 0.189
Размер потока : 1,95 Гбайт (69%)
Библиотека кодирования : x264 core 146 r2538 121396c
Настройки программы : cabac=1 / ref=10 / deblock=1:-3:-3 / analyse=0x3:0x133 / me=umh / subme=11 / psy=1 / psy_rd=1.00:0.04 / mixed_ref=1 / me_range=48 / chroma_me=1 / trellis=2 / 8x8dct=1 / cqm=0 / deadzone=21,11 / fast_pskip=1 / chroma_qp_offset=-3 / threads=6 / lookahead_threads=1 / sliced_threads=0 / nr=0 / decimate=1 / interlaced=0 / bluray_compat=0 / constrained_intra=0 / bframes=10 / b_pyramid=2 / b_adapt=2 / b_bias=0 / direct=3 / weightb=1 / open_gop=0 / weightp=2 / keyint=240 / keyint_min=23 / scenecut=40 / intra_refresh=0 / rc_lookahead=40 / rc=2pass / mbtree=0 / bitrate=1988 / ratetol=1.0 / qcomp=0.60 / qpmin=0 / qpmax=69 / qpstep=4 / cplxblur=20.0 / qblur=0.5 / vbv_maxrate=50000 / vbv_bufsize=62500 / nal_hrd=none / filler=0 / ip_ratio=1.40 / pb_ratio=1.30 / aq=1:1.00
Язык : English
Default : Да
Forced : Нет

Аудио #1
Идентификатор : 2
Формат : AC-3
Формат/Информация : Audio Coding 3
Расширение режима : CM (complete main)
Параметр Endianness формата : Big
Идентификатор кодека : A_AC3
Продолжительность : 2 ч. 23 м.
Вид битрейта : Постоянный
Битрейт : 384 Кбит/сек
Каналы : 6 каналов
Расположение каналов : Front: L C R, Side: L R, LFE
Частота : 48,0 КГц
Частота кадров : 31,250 кадров/сек (1536 spf)
Битовая глубина : 16 бит
Метод сжатия : С потерями
Размер потока : 395 Мбайт (14%)
Заголовок : iTunes
Язык : Russian
Default : Да
Forced : Нет

Аудио #2
Идентификатор : 3
Формат : AC-3
Формат/Информация : Audio Coding 3
Расширение режима : CM (complete main)
Параметр Endianness формата : Big
Идентификатор кодека : A_AC3
Продолжительность : 2 ч. 23 м.
Вид битрейта : Постоянный
Битрейт : 448 Кбит/сек
Каналы : 6 каналов
Расположение каналов : Front: L C R, Side: L R, LFE
Частота : 48,0 КГц
Частота кадров : 31,250 кадров/сек (1536 spf)
Битовая глубина : 16 бит
Метод сжатия : С потерями
Размер потока : 461 Мбайт (16%)
Заголовок : Original
Язык : English
Default : Нет
Forced : Нет

Текст #1
Идентификатор : 4
Формат : UTF-8
Идентификатор кодека : S_TEXT/UTF8
Идентификатор кодека/Информация : UTF-8 Plain Text
Заголовок : Full
Язык : Russian
Default : Нет
Forced : Нет

Текст #2
Идентификатор : 5
Формат : UTF-8
Идентификатор кодека : S_TEXT/UTF8
Идентификатор кодека/Информация : UTF-8 Plain Text
Заголовок : Full
Язык : English
Default : Нет
Forced : Нет

Текст #3
Идентификатор : 6
Формат : UTF-8
Идентификатор кодека : S_TEXT/UTF8
Идентификатор кодека/Информация : UTF-8 Plain Text
Заголовок : SDH
Язык : English
Default : Нет
Forced : Нет

Меню
00:00:00.000 : en:Chapter 01
00:11:31.315 : en:Chapter 02
00:15:59.458 : en:Chapter 03
00:20:08.290 : en:Chapter 04
00:24:34.639 : en:Chapter 05
00:30:40.547 : en:Chapter 06
00:36:47.330 : en:Chapter 07
00:43:15.342 : en:Chapter 08
00:48:06.091 : en:Chapter 09
00:55:17.063 : en:Chapter 10
01:02:42.592 : en:Chapter 11
01:07:14.488 : en:Chapter 12
01:11:55.894 : en:Chapter 13
01:15:47.918 : en:Chapter 14
01:23:20.328 : en:Chapter 15
01:29:45.171 : en:Chapter 16
01:34:00.593 : en:Chapter 17
01:40:09.461 : en:Chapter 18
01:43:33.081 : en:Chapter 19
01:53:38.269 : en:Chapter 20
01:59:43.551 : en:Chapter 21
02:04:49.231 : en:Chapter 22
02:10:03.003 : en:Chapter 23
02:18:03.942 : en:Chapter 24












   Похожие торренты   Торрент   Размер 
В этой теме нет новых непрочитанных сообщений. Бегущий в лабиринте: Лекарство от смерти / Maze Runner: The Death Cure (Уэс Болл) [2018, фантастика, боевик, триллер, BDRip] DUB

163 | 6

2.12 ГБ

В этой теме нет новых непрочитанных сообщений. Бегущий в лабиринте: Лекарство от смерти / Maze Runner: The Death Cure (Уэс Болл) [2018, фантастика, боевик, триллер, BDRip-AVC] DUB

28 | 0

1.39 ГБ

В этой теме нет новых непрочитанных сообщений. Бегущий в лабиринте: Лекарство от смерти / Maze Runner: The Death Cure (Уэс Болл) [2018, фантастика, боевик, триллер, BDRip] DUB

225 | 5

1.46 ГБ

В этой теме нет новых непрочитанных сообщений. Бегущий в лабиринте: Лекарство от смерти / Maze Runner: The Death Cure (Уэс Болл) [2018, Фантастика, боевик, триллер, TS V2] DUB

34 | 0

1.37 ГБ

В этой теме нет новых непрочитанных сообщений. Бегущий в лабиринте: Лекарство от смерти / Maze Runner: The Death Cure (Уэс Болл) [2018, фантастика, боевик, триллер, HDTVRip] DUB

35 | 6

2.05 ГБ

В этой теме нет новых непрочитанных сообщений. Бегущий в лабиринте: Лекарство от смерти / Maze Runner: The Death Cure (Уэс Болл) [2018, фантастика, боевик, триллер, HDTVRip] MVO

135 | 8

1.46 ГБ

В этой теме нет новых непрочитанных сообщений. Бегущий в лабиринте: Лекарство от смерти / Maze Runner: The Death Cure (Уэс Болл) [2018, фантастика, боевик, триллер, WEB-DLRip] DUB

61 | 6

2.18 ГБ




Вы не можете начинать темы
Вы не можете отвечать на сообщения
Вы не можете редактировать свои сообщения
Вы не можете удалять свои сообщения
Вы не можете добавлять вложения

Перейти:  
 Вход
ppkBB3cker v.2 © 2008-2014 @ PPK
[ Time : 0.042s | 16 Queries | GZIP : Off ]

cron