img image001 image001 image001 image001 image001 image001 image001 image001 image001 image001 image001 image001 image001 image001 image001 image001

Planets Sun Sun Sun
Статистика раздачи
Автор: Снежана | Размер: 2.3 ГБ | Добавлен: 23 апр 2018
Раздают: 4    Качают: 0
Скачать торрент
Скачать торрент
Описание торрента

СообщениеДобавлено: 23 апр 2018 

Миньон / The Minion


Перевод: Профессиональный (двухголосый, закадровый) [West Video]
Субтитры: русские
Формат: DVDRip-AVC, MKV, H.264, AC3
Страна: США, Канада
Режиссер: Жан-Марк Пише
Жанр: ужасы, фэнтези, боевик
Продолжительность: 01:31:54
Год выпуска: 1998

В ролях:
Дольф Лундгрен, Франсуаз Робертсон, Дон Франкс, Дэвид Нерман, Майкл Грейес, Аллен Олтман, Жан-Марк Биссон, Андерсон С. Брэдшоу

Описание:
В канун Рождества 1999 года метростроители Нью-Йорка находят 800-летний скелет и таинственный ключ. Новость относительно открытия достигает древнего монастыря, обитатели которого должны защищать святую реликвию. И они направляют своего лучшего воина — Лукаса.
Две тысячи лет назад за низвергнутым Люцифером захлопнулись врата бездны, и теперь бессмертный Фаворит дьявола получил возможность освободить своего хозяина и превратить Нью-Йорк в Армагеддон.




Видео: 718x576@766x576 (4:3), 25 fps, AVC MPEG-4 (x264), , ~ 2180 Kbps avg, 0.211 bit/pixel
Аудио 1: Русский: 48 kHz, AC3 Dolby Digital, 3/2 (L,C,R,l,r) + LFE ch, ~384 kbps avg [Профессиональный (двухголосый, закадровый)] [West Video];
Аудио 2: Русский: 48 kHz, AC3 Dolby Digital, 2,0 (L,R) ch, ~192 kbps avg [Профессиональный (многоголосый, закадровый)] [ОРТ];
Аудио 3: Русский: 48 kHz, AC3 Dolby Digital, 3/2 (L,C,R,l,r) + LFE ch, ~448 kbps avg [Авторский (одноголосый)] [Гаврилов];
Аудио 4: РАнглийский: 48 kHz, AC3 Dolby Digital, 3/2 (L,C,R,l,r) + LFE ch, ~384 kbps avg[Original]

Доп. информация: Исходник - DVD5. Спасибо YanTV. За рип спасибо allecs2010.
General
Unique ID : 232157552392571539930682813417544764877 (0xAEA7EB0EF2E2F12AA837DF76AFC84DCD)
Complete name : C:\Users\User\Desktop\Миньон.1998.DVDRip-AVC.DVO+MVO+AVO+Original.[tfile.ru].mkv
Format : Matroska
Format version : Version 2
File size : 2.30 GiB
Duration : 1h 31mn
Overall bit rate : 3 587 Kbps
Encoded date : UTC 2018-04-21 07:44:26
Writing application : mkvmerge v4.1.1 ('Bouncin' Back') сборка от Jul 3 2010 22:54:08
Writing library : libebml v1.0.0 + libmatroska v1.0.0

Video
ID : 1
Format : AVC
Format/Info : Advanced Video Codec
Format profile :
Format settings, CABAC : Yes
Format settings, ReFrames : 10 frames
Codec ID : V_MPEG4/ISO/AVC
Duration : 1h 31mn
Bit rate : 2 180 Kbps
Width : 718 pixels
Height : 576 pixels
Display aspect ratio : 4:3
Frame rate mode : Constant
Frame rate : 25.000 fps
Color space : YUV
Chroma subsampling : 4:2:0
Bit depth : 8 bits
Scan type : Progressive
Bits/(Pixel*Frame) : 0.211
Stream size : 1.35 GiB (59%)
Title : The Minion
Writing library : x264 core 148 r2638 7599210
Encoding settings : cabac=1 / ref=10 / deblock=1:1:1 / analyse=0x3:0x113 / me=umh / subme=11 / psy=1 / psy_rd=1.00:0.15 / mixed_ref=1 / me_range=32 / chroma_me=1 / trellis=2 / 8x8dct=1 / cqm=0 / deadzone=21,11 / fast_pskip=0 / chroma_qp_offset=-3 / threads=6 / lookahead_threads=1 / sliced_threads=0 / nr=0 / decimate=1 / interlaced=0 / bluray_compat=0 / constrained_intra=0 / bframes=10 / b_pyramid=2 / b_adapt=2 / b_bias=0 / direct=3 / weightb=1 / open_gop=0 / weightp=2 / keyint=250 / keyint_min=25 / scenecut=40 / intra_refresh=0 / rc_lookahead=50 / rc=2pass / mbtree=1 / bitrate=2180 / ratetol=1.0 / qcomp=0.60 / qpmin=0 / qpmax=69 / qpstep=4 / cplxblur=20.0 / qblur=0.5 / ip_ratio=1.40 / aq=1:1.00
Default : Yes
Forced : No
Statistics Tags Issue : mkvmerge v8.5.2 ('Crosses') 64bit 2015-12-17 14:58:26 / mkvmerge v4.1.1 ('Bouncin' Back') сборка от Jul 3 2010 22:54:08 2018-04-21 07:44:26
FromStats_BitRate : 2179032
FromStats_Duration : 01:31:53.560000000
FromStats_FrameCount : 137839
FromStats_StreamSize : 1501778167

Audio #1
ID : 2
Format : AC-3
Format/Info : Audio Coding 3
Mode extension : CM (complete main)
Format settings, Endianness : Big
Muxing mode : Header stripping
Codec ID : A_AC3
Duration : 1h 31mn
Bit rate mode : Constant
Bit rate : 384 Kbps
Channel(s) : 6 channels
Channel positions : Front: L C R, Side: L R, LFE
Sampling rate : 48.0 KHz
Frame rate : 31.250 fps (1536 spf)
Compression mode : Lossy
Stream size : 252 MiB (11%)
Title : DVO (West Video)
Language : Russian
Default : Yes
Forced : No
Statistics Tags Issue : mkvmerge v8.5.2 ('Crosses') 64bit 2015-12-17 14:58:26 / mkvmerge v4.1.1 ('Bouncin' Back') сборка от Jul 3 2010 22:54:08 2018-04-21 07:44:26
FromStats_BitRate : 384000
FromStats_Duration : 01:31:53.440000000
FromStats_FrameCount : 172295
FromStats_StreamSize : 264645120

Audio #2
ID : 3
Format : AC-3
Format/Info : Audio Coding 3
Mode extension : CM (complete main)
Format settings, Endianness : Big
Muxing mode : Header stripping
Codec ID : A_AC3
Duration : 1h 31mn
Bit rate mode : Constant
Bit rate : 192 Kbps
Channel(s) : 2 channels
Channel positions : Front: L R
Sampling rate : 48.0 KHz
Frame rate : 31.250 fps (1536 spf)
Compression mode : Lossy
Stream size : 126 MiB (5%)
Language : Russian
Default : No
Forced : No

Audio #3
ID : 4
Format : AC-3
Format/Info : Audio Coding 3
Mode extension : CM (complete main)
Format settings, Endianness : Big
Muxing mode : Header stripping
Codec ID : A_AC3
Duration : 1h 31mn
Bit rate mode : Constant
Bit rate : 448 Kbps
Channel(s) : 6 channels
Channel positions : Front: L C R, Side: L R, LFE
Sampling rate : 48.0 KHz
Frame rate : 31.250 fps (1536 spf)
Compression mode : Lossy
Stream size : 294 MiB (12%)
Title : AVO (Андрей Гаврилов)
Language : Russian
Default : No
Forced : No
Statistics Tags Issue : mkvmerge v8.5.2 ('Crosses') 64bit 2015-12-17 14:58:26 / mkvmerge v4.1.1 ('Bouncin' Back') сборка от Jul 3 2010 22:54:08 2018-04-21 07:44:26
FromStats_BitRate : 448000
FromStats_Duration : 01:31:45.632000000
FromStats_FrameCount : 172051
FromStats_StreamSize : 308315392

Audio #4
ID : 5
Format : AC-3
Format/Info : Audio Coding 3
Mode extension : CM (complete main)
Format settings, Endianness : Big
Muxing mode : Header stripping
Codec ID : A_AC3
Duration : 1h 31mn
Bit rate mode : Constant
Bit rate : 384 Kbps
Channel(s) : 6 channels
Channel positions : Front: L C R, Side: L R, LFE
Sampling rate : 48.0 KHz
Frame rate : 31.250 fps (1536 spf)
Compression mode : Lossy
Stream size : 252 MiB (11%)
Title : Original
Language : English
Default : No
Forced : No
Statistics Tags Issue : mkvmerge v8.5.2 ('Crosses') 64bit 2015-12-17 14:58:26 / mkvmerge v4.1.1 ('Bouncin' Back') сборка от Jul 3 2010 22:54:08 2018-04-21 07:44:26
FromStats_BitRate : 384000
FromStats_Duration : 01:31:53.440000000
FromStats_FrameCount : 172295
FromStats_StreamSize : 264645120

Text
ID : 6
Format : UTF-8
Codec ID : S_TEXT/UTF8
Codec ID/Info : UTF-8 Plain Text
Title : Full
Language : Russian
Default : No
Forced : No
Statistics Tags Issue : mkvmerge v8.5.2 ('Crosses') 64bit 2015-12-17 14:58:26 / mkvmerge v4.1.1 ('Bouncin' Back') сборка от Jul 3 2010 22:54:08 2018-04-21 07:44:26
FromStats_BitRate : 75
FromStats_Duration : 01:27:17.000000000
FromStats_FrameCount : 602
FromStats_StreamSize : 49700

















   Похожие торренты   Торрент   Размер 
В этой теме нет новых непрочитанных сообщений. От заката до рассвета / From Dusk Till Dawn (Роберт Родригес) [1996, ужасы, фэнтези, боевик, триллер, комедия, криминал, BDRip] 2xMVO / Мистика

15 | 0

1.46 ГБ

В этой теме нет новых непрочитанных сообщений. Зодчий теней / Shadow Builder (Джэми Диксон) [1998, ужасы, боевик, триллер, WEBDLRip] MVO+AVO / Мистика

5 | 0

1.45 ГБ

В этой теме нет новых непрочитанных сообщений. Гадкий Я: Бегущий миньон / Despicable Me: Minion Rush [v3.2.0l + Mod] (2013) Android

268 | 27

333.44 МБ

В этой теме нет новых непрочитанных сообщений. Гадкий Я: Бегущий миньон / Despicable Me: Minion Rush [v1.2.0] (2013) Android

1118 | 27

299.4 МБ

В этой теме нет новых непрочитанных сообщений. Гадкий Я: Бегущий миньон / Despicable Me: Minion Rush [v2.8.4b] (2013) Android

188 | 14

132.54 МБ

В этой теме нет новых непрочитанных сообщений. Одичавшие / Feral (Марк Янг) [2017, ужасы, триллер, WEBDLRip] MVO / Мистика

11 | 0

1.3 ГБ

В этой теме нет новых непрочитанных сообщений. Одичавшие / Feral (Марк Янг) [2017, ужасы, триллер, WEB-DLRip] MVO / Мистика

16 | 0

1.37 ГБ




Вы не можете начинать темы
Вы не можете отвечать на сообщения
Вы не можете редактировать свои сообщения
Вы не можете удалять свои сообщения
Вы не можете добавлять вложения

Перейти:  
 Вход
ppkBB3cker v.2 © 2008-2014 @ PPK
[ Time : 0.033s | 17 Queries | GZIP : Off ]

cron