img image001 image001 image001 image001 image001 image001 image001 image001 image001 image001 image001 image001 image001 image001 image001 image001

Planets Sun Sun Sun
Статистика раздачи
Автор: Снежана | Размер: 3.86 ГБ | Добавлен: 24 апр 2018
Раздают: 11    Качают: 4
Скачать торрент
Скачать торрент
Описание торрента

СообщениеДобавлено: 24 апр 2018 

Пoлицeйcкий с Рублёвки (3 сезон 1-5 серии из 8) Снова дома

Перевод: Не требуется, cубтитры: отсутствуют
Формат: HDTVRip-AVC, MKV, H.264, AC3
Страна: Россия
Режиссер: Илья Куликов
Жанр: комедия, криминал
Всего серий: 8
Продолжительность: 5 x ~ 00:50:00
Год выпуска: 2018

В ролях: Александр Петров (III), Сергей Бурунов, Роман Попов, Татьяна Бабенкова, Софья Каштанова, Ростислав Гулбис, Рина Гришина, Анастасия Стежко, Ирина Вилкова, Юлия Богатикова, Александра Бортич

Описание: Гриша Измайлов с триумфом возвращается на Рублевку в новой должности начальника родного отдела. Его радость разделяют все вернувшиеся домой коллеги. Все, кроме одного: бывший начальник Яковлев (актер Сергей Бурунов) теперь всего лишь глава оперов. И готов на все, лишь бы вернуть себе власть и сбросить гнёт ненавистного Измайлова.
«Демон теперь главный»

Рейтинг и доп. информация:


Видео: 1024x472 (2,2:1), 25 fps, AVC MPEG-4 (x264), ~ 2000 kbps , 0.166 bit/pixel
Аудио: 48 kHz, AC3, 2/0 (L,R) ch, ~192 kbps
Внимание! Раздача ведётся путём добавления новых серий. При каждом добавлении создаётся новый торрент.
Чтобы начать докачку новой серии, пользователям необходимо сделать следующее:
1. Остановить скачивание.
2. Удалить старый торрент у себя из клиента (старые серии удалять не надо).
3. Скачать новый торрент и запустить его у себя в клиенте вместо старого, при этом указать клиенту путь в старую папку куда и должно происходить скачивание новых серий. Ваш клиент при этом должен произвести хеширование (проверку) старой папки и будет докачивать только те серии, которых у вас ещё нет. Старые серии при этом не удаляются, а продолжают раздаваться! Eсли вы уже удалили старые серии, то предотвратить повторную закачку старых серий можно, отжав галочку в соответствующих местах при запуске нового торрента.


Общее
Уникальный идентификатор : 222168907583201003570816500162815214956 (0xA7242CD8C4CD3391B6FA2C8F452E456C)
Полное имя : C:\Policejskij s rubliovki.s03.(2018).HDTVRip.(AVC).\01.Policejskij.s.rublevki.03.(2018).HDTVRip.(AVC).mkv
Формат : Matroska
Версия формата : Version 2
Размер файла : 766 Мбайт
Продолжительность : 48 м. 48 с.
Общий поток : 2193 Кбит/сек
Дата кодирования : UTC 2018-04-16 23:55:22
Программа кодирования : mkvmerge v7.8.0 ('River Man') 32bit built on Apr 3 2015 12:11:22
Библиотека кодирования : libebml v1.3.1 + libmatroska v1.4.2

Видео
Идентификатор : 1
Формат : AVC
Формат/Информация : Advanced Video Codec
Профиль формата :
Настройки формата : CABAC / 9 Ref Frames
Параметр CABAC формата : Да
Параметр RefFrames формата : 9 кадров
Идентификатор кодека : V_MPEG4/ISO/AVC
Продолжительность : 48 м. 48 с.
Битрейт : 2000 Кбит/сек
Ширина : 1024 пикселя
Высота : 472 пикселя
Соотношение сторон : 2,2:1
Режим частоты кадров : Постоянный
Частота кадров : 25,000 кадров/сек
Цветовое пространство : YUV
Субдискретизация насыщенности : 4:2:0
Битовая глубина : 8 бит
Тип развёртки : Прогрессивная
Бит/(Пиксели*Кадры) : 0.166
Размер потока : 683 Мбайт (89%)
Библиотека кодирования : x264 core 146 r2538 121396c
Настройки программы : cabac=1 / ref=9 / deblock=1:-2:-1 / analyse=0x3:0x133 / me=umh / subme=9 / psy=1 / psy_rd=1.00:0.15 / mixed_ref=1 / me_range=32 / chroma_me=1 / trellis=2 / 8x8dct=1 / cqm=0 / deadzone=21,11 / fast_pskip=0 / chroma_qp_offset=-3 / threads=18 / lookahead_threads=3 / sliced_threads=0 / nr=0 / decimate=1 / interlaced=0 / bluray_compat=0 / constrained_intra=0 / bframes=9 / b_pyramid=2 / b_adapt=2 / b_bias=0 / direct=1 / weightb=1 / open_gop=0 / weightp=2 / keyint=250 / keyint_min=25 / scenecut=40 / intra_refresh=0 / rc=2pass / mbtree=0 / bitrate=2000 / ratetol=1.0 / qcomp=0.60 / qpmin=0 / qpmax=69 / qpstep=4 / cplxblur=20.0 / qblur=0.5 / ip_ratio=1.40 / pb_ratio=1.30 / aq=2:1.00
Default : Да
Forced : Нет
Цветовой диапазон : Limited
Основные цвета : BT.709
Характеристики трансфера : BT.709
Коэффициенты матрицы : BT.709

Аудио
Идентификатор : 2
Формат : AC-3
Формат/Информация : Audio Coding 3
Идентификатор кодека : A_AC3
Продолжительность : 48 м. 48 с.
Вид битрейта : Постоянный
Битрейт : 192 Кбит/сек
Каналы : 2 канала
Расположение каналов : Front: L R
Частота : 48,0 КГц
Частота кадров : 31,250 кадров/сек (1536 SPF)
Битовая глубина : 16 бит
Метод сжатия : С потерями
Размер потока : 67,0 Мбайт (9%)
ServiceKind/String : Complete Main
Default : Да
Forced : Нет








   Похожие торренты   Торрент   Размер 
В этой теме нет новых непрочитанных сообщений. Пoлицeйcкий с Рублёвки (3 сезон 1-4 серии из 8) Снова дома (Илья Куликов) [2018, комедия, криминал, HDTVRip]

24 | 8

2.18 ГБ

В этой теме нет новых непрочитанных сообщений. Пoлицeйcкий с Рублёвки (3 сезон 1-5 серии из 8) Снова дома (Илья Куликов) [2018, комедия, криминал, HDTVRip]

26 | 9

2.72 ГБ

В этой теме нет новых непрочитанных сообщений. Пoлицeйcкий с Рублёвки (3 сезон 1-3 серии из 8) Снова дома (Илья Куликов) [2018, комедия, криминал, HDTVRip-AVC]

51 | 18

2.33 ГБ

В этой теме нет новых непрочитанных сообщений. Пoлицeйcкий с Рублёвки (3 сезон 1-6 серии из 8) Снова дома (Илья Куликов) [2018, комедия, криминал, HDTVRip-AVC]

15 | 11

4.62 ГБ

В этой теме нет новых непрочитанных сообщений. Пoлицeйcкий с Рублёвки (3 сезон 1-7 серии из 8) Снова дома (Илья Куликов) [2018, комедия, криминал, HDTVRip]

12 | 13

3.81 ГБ

В этой теме нет новых непрочитанных сообщений. Пoлицeйcкий с Рублёвки (3 сезон 1-3 серии из 8) Снова дома (Илья Куликов) [2018, комедия, криминал, HDTVRip]

15 | 0

1.63 ГБ

В этой теме нет новых непрочитанных сообщений. Пoлицeйcкий с Рублёвки (3 сезон 1-8 серии из 8) Снова дома (Илья Куликов) [2018, комедия, криминал, HDTVRip]

323 | 63

4.36 ГБ




Вы не можете начинать темы
Вы не можете отвечать на сообщения
Вы не можете редактировать свои сообщения
Вы не можете удалять свои сообщения
Вы не можете добавлять вложения

Перейти:  
 Вход
ppkBB3cker v.2 © 2008-2014 @ PPK
[ Time : 0.025s | 15 Queries | GZIP : Off ]

cron