img image001 image001 image001 image001 image001 image001 image001 image001 image001 image001 image001 image001 image001 image001 image001 image001

Planets Sun Sun Sun
Статистика раздачи
Автор: Снежана | Размер: 3.12 ГБ | Добавлен: 26 апр 2018
Раздают: 4    Качают: 0
Скачать торрент
Скачать торрент
Описание торрента

СообщениеДобавлено: 26 апр 2018 

Затерянный мир / Land of the Lost


Перевод: Авторский (одноголосый) М.Яроцкий, субтитры: есть (английские)
Формат: HDRip-AVC, MKV, H.264, AC3
Страна: США
Режиссер: Брэд Силберлинг
Жанр: фантастика, фэнтези, боевик, комедия, приключения
Продолжительность: 01:41:40
Год выпуска: 2009

В ролях: Уилл Феррелл, Анна Фрил, Дэнни МакБрайд, Йорма Такконе, Джон Бойлан, Мэтт Лоэр, Бобби Дж. Томпсон, Сьерра МакКормик, Шеннон Лемке, Стиви Уолш мл.

Описание: Невероятно-захватывающие приключения неудачника-палеонтолога, его ассистентки и красавчика-гида, которые случайно находят странный мир, заселенный динозаврами и прочими австралопитеками.



Видео: 1024x554 (1,85:1), 23,976 fps, MPEG4 AVC (x264), ~3500 kbps avg, 0.257 bit/pixel
Аудио #1: Русский: 48 kHz, AC3 Dolby Digital, 3/2 (L,C,R) + L R, LFE ch, 448 kbps [Авторский (одноголосый), Михаил Яроцкий]
Аудио #2: Английский: 48 kHz, AC3 Dolby Digital, 3/2 (L,C,R) + L R, LFE ch, 384 kbps [Оригинал]
Релиз-группа:

Доп. информация: Перевод Михаила Яроцкого доступен благодаря: Старый. Работа со звуком: mihaildns.
Общее
Уникальный идентификатор : 198127312161636615926626419155837765007 (0x950DEEAD22238172BDD7BB96724DC58F)
Полное имя : D:\VIDEO\Мои переводы\Land Of The Lost.2009.BDRip-AVC.AVO.Kyberpunk.mkv
Формат : Matroska
Версия формата : Version 4 / Version 2
Размер файла : 3,12 Гбайт
Продолжительность : 1 ч. 41 м.
Общий поток : 4398 Кбит/сек
Название фильма : Затеряный мир / Land Of The Lost (2009г)
Дата кодирования : UTC 2018-02-24 12:40:32
Программа кодирования : mkvmerge v8.3.0 ('Over the Horizon') 64bit
Библиотека кодирования : libebml v1.3.1 + libmatroska v1.4.2
Обложка : Yes
Attachments : cover.jpg

Видео
Идентификатор : 1
Формат : AVC
Формат/Информация : Advanced Video Codec
Профиль формата :
Параметр CABAC формата : Да
Параметр RefFrames формата : 9 кадров
Идентификатор кодека : V_MPEG4/ISO/AVC
Продолжительность : 1 ч. 41 м.
Битрейт : 3500 Кбит/сек
Ширина : 1024 пикселя
Высота : 554 пикселя
Соотношение сторон : 1,85:1
Режим частоты кадров : Постоянный
Частота кадров : 23,976 (24000/1001) кадра/сек
Цветовое пространство : YUV
Субдискретизация насыщенности : 4:2:0
Битовая глубина : 8 бит
Тип развёртки : Прогрессивная
Бит/(Пиксели*Кадры) : 0.257
Размер потока : 2,49 Гбайт (80%)
Библиотека кодирования : x264 core 125 r2208 d9d2288
Настройки программы : cabac=1 / ref=9 / deblock=1:-3:-3 / analyse=0x3:0x133 / me=umh / subme=11 / psy=1 / psy_rd=1.00:0.20 / mixed_ref=1 / me_range=48 / chroma_me=1 / trellis=2 / 8x8dct=1 / cqm=0 / deadzone=21,11 / fast_pskip=0 / chroma_qp_offset=-3 / threads=12 / lookahead_threads=2 / sliced_threads=0 / nr=0 / decimate=0 / interlaced=0 / bluray_compat=0 / constrained_intra=0 / bframes=8 / b_pyramid=2 / b_adapt=2 / b_bias=0 / direct=3 / weightb=1 / open_gop=0 / weightp=2 / keyint=250 / keyint_min=23 / scenecut=40 / intra_refresh=0 / rc_lookahead=40 / rc=2pass / mbtree=1 / bitrate=3500 / ratetol=1.0 / qcomp=0.60 / qpmin=0 / qpmax=69 / qpstep=4 / cplxblur=20.0 / qblur=0.5 / ip_ratio=1.40 / aq=1:1.00
Язык : English
Default : Да
Forced : Нет

Аудио #1
Идентификатор : 2
Формат : AC-3
Формат/Информация : Audio Coding 3
Параметр Endianness формата : Big
Идентификатор кодека : A_AC3
Продолжительность : 1 ч. 41 м.
Вид битрейта : Постоянный
Битрейт : 448 Кбит/сек
Каналы : 6 каналов
Расположение каналов : Front: L C R, Side: L R, LFE
Частота : 48,0 КГц
Частота кадров : 31,250 кадров/сек (1536 SPF)
Битовая глубина : 16 бит
Метод сжатия : С потерями
Размер потока : 326 Мбайт (10%)
Заголовок : AVO М.Яроцкий
Язык : Russian
ServiceKind/String : Complete Main
Default : Да
Forced : Да

Аудио #2
Идентификатор : 3
Формат : AC-3
Формат/Информация : Audio Coding 3
Параметр Endianness формата : Big
Идентификатор кодека : A_AC3
Продолжительность : 1 ч. 41 м.
Вид битрейта : Постоянный
Битрейт : 448 Кбит/сек
Каналы : 6 каналов
Расположение каналов : Front: L C R, Side: L R, LFE
Частота : 48,0 КГц
Частота кадров : 31,250 кадров/сек (1536 SPF)
Битовая глубина : 16 бит
Метод сжатия : С потерями
Размер потока : 326 Мбайт (10%)
Язык : English
ServiceKind/String : Complete Main
Default : Нет
Forced : Нет

Текст
Идентификатор : 4
Формат : UTF-8
Идентификатор кодека : S_TEXT/UTF8
Идентификатор кодека/Информация : UTF-8 Plain Text
Продолжительность : 1 ч. 36 м.
Битрейт : 74 бит/сек
ElementCount : 1642
Размер потока : 52,2 Кбайт (0%)
Язык : English
Default : Нет
Forced : Нет










   Похожие торренты   Торрент   Размер 
В этой теме нет новых непрочитанных сообщений. Суперсемейка 2 / Incredibles 2 (Брэд Бёрд) [2018, мультфильм, фантастика, боевик, комедия, приключения, семейный, TeleSynch]

1517 | 18

1.34 ГБ

В этой теме нет новых непрочитанных сообщений. Рэмпейдж / Rampage (Брэд Пейтон) [2018, фантастика, боевик, приключения, HDRip] DUB

445 | 25

1.45 ГБ

В этой теме нет новых непрочитанных сообщений. Рэмпейдж / Rampage (Брэд Пейтон) [2018, фантастика, боевик, приключения, HDRip] DUB

58 | 8

1.46 ГБ

В этой теме нет новых непрочитанных сообщений. Рэмпейдж / Rampage (Брэд Пейтон) [2018, фантастика, боевик, приключения, HDRip] DUB

171 | 16

2.05 ГБ

В этой теме нет новых непрочитанных сообщений. Затерянный мир / Land of the Lost (2009) HDRip-AVC | D

41 | 3

745.42 МБ

В этой теме нет новых непрочитанных сообщений. Чудо-женщина / Wonder Woman (Пэтти Дженкинс) [2017, фантастика, фэнтези, боевик, приключения, HDRip] DUB / Фантастика

71 | 7

1.45 ГБ

В этой теме нет новых непрочитанных сообщений. Лига справедливости / Justice League (Зак Снайдер) [2017, фантастика, фэнтези, боевик, приключения, HDRip] DUB / Фантастика

53 | 7

1.46 ГБ




Вы не можете начинать темы
Вы не можете отвечать на сообщения
Вы не можете редактировать свои сообщения
Вы не можете удалять свои сообщения
Вы не можете добавлять вложения

Перейти:  
 Вход
ppkBB3cker v.2 © 2008-2014 @ PPK
[ Time : 0.028s | 17 Queries | GZIP : Off ]

cron