img image001 image001 image001 image001 image001 image001 image001 image001 image001 image001 image001 image001 image001 image001 image001 image001

Planets Sun Sun Sun
Статистика раздачи
Автор: Снежана | Размер: 1.86 ГБ | Добавлен: 26 апр 2018
Раздают: 13    Качают: 0
Скачать торрент
Скачать торрент
Описание торрента

СообщениеДобавлено: 26 апр 2018 

Тесс / Tess


Перевод: Любительский (двухголосый) Galina Vasyukova & datynet; перевод: Куценко, субтитры: отсутствуют
Формат: TVRip, MKV, MPEG Video, MP3
Страна: ЮАР
Режиссер: Мег Рикардс / Meg Rickards
Жанр: Драма
Продолжительность: 01:26:37
Год выпуска: 2016
В ролях: Кристина Виссер, Брендон Дэниелс, Энсе Икпе-Этим, Данн Жак Мутон, Ли-Энн Ван Рой, Ташанай Дэниелс, Куанита Адамс, Марк Элдеркин, Таринн Уингаард, Уоррик Грайр, Грег Крик, Такс Тэд Лунгу.
Описание: Когда проститутка Тесс беременеет, ей приходиться бороться, чтобы ее прошлое не поглотило ее целиком.



Видео: 720x576 (16:9), 25fps, MPEG Video ~2885 kbps avg, 0.278 bit/pixel
Аудио: 48 kHz, MPEG Layer 3, 2 ch, ~192.00 kbps avg
Доп. информация: 1 номинация:
South African Film and Television Awards 2017



Format : Matroska
Format version : Version 4 / Version 2
File size : 1.86 GiB
Duration : 1 h 26 min
Overall bit rate mode : Variable
Overall bit rate : 3 079 kb/s
Encoded date : UTC 2018-04-25 08:29:21
Writing application : mkvmerge v9.6.0 ('Slave To Your Mind') 64bit
Writing library : libebml v1.3.4 + libmatroska v1.4.5

Video
ID : 1
Format : MPEG Video
Format version : Version 2
Format profile : Main@Main
Format settings, BVOP : Yes
Format settings, Matrix : Custom
Format settings, GOP : Variable
Format settings, picture st : Frame
Codec ID : V_MPEG2
Codec ID/Info : MPEG 1 or 2 Video
Duration : 1 h 26 min
Bit rate mode : Variable
Bit rate : 2 885 kb/s
Maximum bit rate : 15.0 Mb/s
Width : 720 pixels
Height : 576 pixels
Display aspect ratio : 16:9
Active Format Description : Full frame 16:9 image
Frame rate mode : Constant
Frame rate : 25.000 FPS
Standard : PAL
Color space : YUV
Chroma subsampling : 4:2:0
Bit depth : 8 bits
Scan type : Interlaced
Scan order : Top Field First
Compression mode : Lossy
Bits/(Pixel*Frame) : 0.278
Time code of first frame : 00:00:00:00
Time code source : Group of pictures header
Stream size : 1.75 GiB (94%)
Default : Yes
Forced : No
Color primaries : BT.601 PAL
Transfer characteristics : BT.470 System B, BT.470 System G
Matrix coefficients : BT.601

Audio
ID : 2
Format : MPEG Audio
Format version : Version 1
Format profile : Layer 3
Codec ID : A_MPEG/L3
Codec ID/Hint : MP3
Duration : 1 h 26 min
Bit rate mode : Constant
Bit rate : 192 kb/s
Channel(s) : 2 channels
Sampling rate : 48.0 kHz
Frame rate : 41.667 FPS (1152 SPF)
Compression mode : Lossy
Stream size : 119 MiB (6%)
Default : Yes
Forced : No






   Похожие торренты   Торрент   Размер 
В этой теме нет новых непрочитанных сообщений. Телохранитель Тесс / Guarding Tess (1994) DVDRip

26 | 7

1.45 ГБ

В этой теме нет новых непрочитанных сообщений. Телохранитель Тесс / Guarding Tess (1994) WEB-DL 720p | P, P2

99 | 6

3.25 ГБ

В этой теме нет новых непрочитанных сообщений. Телохранитель Тесс / Guarding Tess (1994) DVD5 от Youtracker | P | Лицензия

1 | 4

4.21 ГБ

В этой теме нет новых непрочитанных сообщений. Телохранитель Тесс / Guarding Tess (1994) HDTVRip от Leon-masl | P

233 | 46

1.46 ГБ

В этой теме нет новых непрочитанных сообщений. Телохранитель Тесс / Guarding Tess (1994) DVD5 от Youtracker | P | Custom

11 | 11

3.96 ГБ

В этой теме нет новых непрочитанных сообщений. Тэсс / Tess (1979) DVDRip

32 | 8

1.98 ГБ

В этой теме нет новых непрочитанных сообщений. Тэсс / Tess (1979) BDRip-AVC от MediaClub

34 | 6

3.74 ГБ




Вы не можете начинать темы
Вы не можете отвечать на сообщения
Вы не можете редактировать свои сообщения
Вы не можете удалять свои сообщения
Вы не можете добавлять вложения

Перейти:  
 Вход
ppkBB3cker v.2 © 2008-2014 @ PPK
[ Time : 0.603s | 15 Queries | GZIP : Off ]

cron