img image001 image001 image001 image001 image001 image001 image001 image001 image001 image001 image001 image001 image001 image001 image001 image001

Planets Sun Sun Sun
Статистика раздачи
Автор: Снежана | Размер: 27.9 ГБ | Добавлен: 20 май 2018
Раздают: 28    Качают: 12
Скачать торрент
Скачать торрент
Описание торрента

СообщениеДобавлено: 20 май 2018 

Ищейка (2 сезон 1-16 серии из 16)


Перевод: Не требуется
Cубтитры: отсутствуют
Формат: WEB-DL, MKV, H.264, AC3
Страна: Россия
Режиссер: Дмитрий Брусникин
Жанр: детектив
Всего серий: 16
Продолжительность: 16 х ~ 00:51:00
Год выпуска: 2018

В ролях: Анна Банщикова, Александр Макогон, Андрей Казаков, Денис Бургазлиев, Владислав Павлов, Эдуард Чекмазов, Владимир Николенко, Дмитрий Миллер, Анатолий Гущин, Ирина Пулина, Константин Тополага, Ирина Гавра, Ирина Петрова, Кирилл Чернышенко, Сергей Сосновский, Виктория Корлякова, Юрий Межевич

Описание: Подполковника полиции Александру Ивановну Кушнир перевели из Москвы в небольшой город на берегу Чёрного моря. Постепенно ей удалось наладить отношения с сотрудниками отдела и даже с непосредственным начальником, который по иронии судьбы оказался её бывшим возлюбленным. Отчаявшись обрести личное счастье Кушнир окончательно с головой погружается в работу. И как раз в этот момент встречает человека, который, кажется, готов исполнить любое её желание. Александра слепо отдаётся новому увлечению. Но есть одна проблема: этот загадочный незнакомец - совсем не тот, за кого себя выдаёт…



Видео: 1920x1080 (16:9), 25,000 fps, AVC MPEG-4 (x264), High@L4,1, ~ 4 567 Кбит/сек, 0.088 bit/pixel
Аудио: 48 kHz, AC3, 2/0 (L,R) ch, ~192.00 kbps avg








Общее
Уникальный идентификатор : 177180076844128389488687872386079780167 (0x854BA43CE6F6A2C0CE1E02AD26D5ED47)
Полное имя : E:\Закачка-2\01.Ichejka.2.2018.WEB-DL.1080.Files-x.mkv
Формат : Matroska
Версия формата : Version 4 / Version 2
Размер файла : 1,76 Гбайт
Продолжительность : 51 м.
Режим общего битрейта : Постоянный
Общий поток : 4856 Кбит/сек
Программа кодирования : Lavf56.25.101
Библиотека кодирования : Lavf56.25.101 / Lavf56.25.101

Видео
Идентификатор : 1
Формат : AVC
Формат/Информация : Advanced Video Codec
Профиль формата :
Параметр CABAC формата : Да
Параметр ReFrames формата : 4 кадра
Идентификатор кодека : V_MPEG4/ISO/AVC
Продолжительность : 51 м.
Вид битрейта : Постоянный
Битрейт : 4567 Кбит/сек
Номинальный битрейт : 4800 Кбит/сек / 4800 Кбит/сек
Ширина : 1920 пикселей
Высота : 1080 пикселей
Соотношение сторон : 16:9
Режим частоты кадров : Постоянный
Частота кадров : 25,000 кадров/сек
Цветовое пространство : YUV
Субдискретизация насыщенности : 4:2:0
Битовая глубина : 8 бит
Тип развёртки : Прогрессивная
Бит/(Пиксели*Кадры) : 0.088
Размер потока : 1,65 Гбайт (94%)
Библиотека кодирования : x264 core 148
Настройки программы : cabac=1 / ref=2 / deblock=1:0:0 / analyse=0x3:0x113 / me=hex / subme=6 / psy=1 / psy_rd=1.00:0.00 / mixed_ref=1 / me_range=16 / chroma_me=1 / trellis=1 / 8x8dct=1 / cqm=0 / deadzone=21,11 / fast_pskip=1 / chroma_qp_offset=-2 / threads=1 / lookahead_threads=1 / sliced_threads=0 / nr=0 / decimate=1 / interlaced=0 / bluray_compat=0 / constrained_intra=0 / bframes=3 / b_pyramid=2 / b_adapt=1 / b_bias=0 / direct=1 / weightb=1 / open_gop=0 / weightp=1 / keyint=250 / keyint_min=25 / scenecut=0 / intra_refresh=0 / rc_lookahead=30 / rc=cbr / mbtree=1 / bitrate=4800 / ratetol=1.0 / qcomp=0.60 / qpmin=0 / qpmax=69 / qpstep=4 / vbv_maxrate=4800 / vbv_bufsize=2400 / nal_hrd=cbr / filler=1 / ip_ratio=1.40 / aq=1:1.00
Default : Да
Forced : Нет

Аудио
Идентификатор : 2
Формат : AC-3
Формат/Информация : Audio Coding 3
Расширение режима : CM (complete main)
Параметр Endianness формата : Big
Идентификатор кодека : A_AC3
Продолжительность : 51 м.
Вид битрейта : Постоянный
Битрейт : 192 Кбит/сек
Каналы : 2 канала
Расположение каналов : Front: L R
Частота : 48,0 КГц
Частота кадров : 31,250 кадров/сек (1536 spf)
Метод сжатия : С потерями
Задержка видео : -80 мс.
Размер потока : 71,2 Мбайт (4%)
Язык : English
Default : Да
Forced : Нет






   Похожие торренты   Торрент   Размер 
В этой теме нет новых непрочитанных сообщений. Ищейка (2 сезон 1-2 серии из 16) (Дмитрий Брусникин) [2018, детектив, WEB-DL 1080p]

6 | 0

3.53 ГБ

В этой теме нет новых непрочитанных сообщений. Ищейка (2 сезон 1-16 серии из 16) (Дмитрий Брусникин) [2018, детектив, HDTVRip-AVC]

68 | 67

12.44 ГБ

В этой теме нет новых непрочитанных сообщений. Ищейка (2 сезон 1-8 серии из 16) (Дмитрий Брусникин) [2018, детектив, WEB-DLRip-AVC]

4 | 2

6.84 ГБ

В этой теме нет новых непрочитанных сообщений. Ищейка (2 сезон 1-10 серии из 16) (Дмитрий Брусникин) [2018, детектив, HDTVRip]

51 | 26

7.11 ГБ

В этой теме нет новых непрочитанных сообщений. Ищейка (2 сезон 1-8 серии из 16) (Дмитрий Брусникин) [2018, детектив, HDTVRip-AVC]

4 | 0

6.24 ГБ

В этой теме нет новых непрочитанных сообщений. Ищейка (2 сезон 1-16 серии из 16) (Дмитрий Брусникин) [2018, детектив, HDTVRip]

290 | 89

11.35 ГБ

В этой теме нет новых непрочитанных сообщений. Ищейка (2 сезон 1-4 серии из 16) (Дмитрий Брусникин) [2018, детектив, WEB-DLRip-AVC]

19 | 8

3.46 ГБ




Вы не можете начинать темы
Вы не можете отвечать на сообщения
Вы не можете редактировать свои сообщения
Вы не можете удалять свои сообщения
Вы не можете добавлять вложения

Перейти:  
 Вход
ppkBB3cker v.2 © 2008-2014 @ PPK
[ Time : 0.069s | 20 Queries | GZIP : Off ]

cron