img image001 image001 image001 image001 image001 image001 image001 image001 image001 image001 image001 image001 image001 image001 image001 image001

Planets Sun Sun Sun
Статистика раздачи
Автор: Снежана | Размер: 17.66 ГБ | Добавлен: 20 май 2018
Раздают: 13    Качают: 3
Скачать торрент
Скачать торрент
Описание торрента

СообщениеДобавлено: 20 май 2018 

Опер по вызову (1-28 серии из 28 )


Перевод: Не требуется
Cубтитры: отсутствуют
Формат: WEB-DL 720p, MKV, H264, AC3
Страна: Украина
Режиссер: Тарас Ткаченко
Жанр: детектив, криминал
Продолжительность: 28 x ~ 00:46:00
Год выпуска: 2018

В ролях: Павел Вишняков, Слава Красовская, Александр Игнатуша, Валентина Ищенко, Александр Пожарский, Артем Мартинішин

Описание: "Опер по вызову" - это остросюжетный сериал про сообразительного, харизматичного, опытного капитана Артема Трофимова. Трагическая гибель невесты в корне меняет его жизнь, а желание наказать убийцу приводит его в Департамент криминальной разведки. Работая под прикрытием в Музее милиции, Артем распутывает сложнейшие криминальные головоломки, прибегая к манипуляциям, шпионажу и мастерства перевоплощений. Помогают Трофимову психолог-криминалист Лидия, аналитик Слава, знаток оружия и единоборств Роман и начальник ДКР по прозвищу "Дед".



Видео: 1280x720 (16:9), 25,000 fps, AVC MPEG-4 (x264), , ~ 1747 Кбит/сек, 0.076 bit/pixel
Аудио: Русский 48 kHz, AC3 Dolby Digital, 2/0 (L,R) ch, ~192 kbps avg









Общее
Уникальный идентификатор : 177885382047444667177453275669462589273 (0x85D37A781EDAA1CEA3471F12FAA91F59)
Полное имя : E:\Закачка-2\Oper.po.vyzovu.e01.2018.WEB-DL.(720p).Getty.mkv
Формат : Matroska
Версия формата : Version 4 / Version 2
Размер файла : 655 Мбайт
Продолжительность : 46 м.
Общий поток : 1979 Кбит/сек
Название фильма : Oper.po.vyzovu.e01.2018.WEB-DL.(720p).Getty
Дата кодирования : UTC 2018-03-13 14:01:56
Программа кодирования : mkvmerge v7.8.0 ('River Man') 32bit built on Mar 27 2015 16:18:02
Библиотека кодирования : libebml v1.3.1 + libmatroska v1.4.2

Видео
Идентификатор : 1
Формат : AVC
Формат/Информация : Advanced Video Codec
Профиль формата :
Параметр CABAC формата : Да
Параметр ReFrames формата : 3 кадра
Идентификатор кодека : V_MPEG4/ISO/AVC
Продолжительность : 46 м.
Битрейт : 1747 Кбит/сек
Ширина : 1280 пикселей
Высота : 720 пикселей
Соотношение сторон : 16:9
Режим частоты кадров : Постоянный
Частота кадров : 25,000 кадров/сек
Цветовое пространство : YUV
Субдискретизация насыщенности : 4:2:0
Битовая глубина : 8 бит
Тип развёртки : Прогрессивная
Бит/(Пиксели*Кадры) : 0.076
Размер потока : 578 Мбайт (88%)
Default : Да
Forced : Нет

Аудио
Идентификатор : 2
Формат : AC-3
Формат/Информация : Audio Coding 3
Расширение режима : CM (complete main)
Параметр Endianness формата : Big
Идентификатор кодека : A_AC3
Продолжительность : 46 м.
Вид битрейта : Постоянный
Битрейт : 192 Кбит/сек
Каналы : 2 канала
Расположение каналов : Front: L R
Частота : 48,0 КГц
Частота кадров : 31,250 кадров/сек (1536 spf)
Метод сжатия : С потерями
Размер потока : 63,5 Мбайт (10%)
Default : Да
Forced : Нет






   Похожие торренты   Торрент   Размер 
В этой теме нет новых непрочитанных сообщений. Опер по вызову (1-9 серии из 28) (Тарас Ткаченко ) [2018, детектив, криминал, WEB-DL 720p]

12 | 8

5.5 ГБ

В этой теме нет новых непрочитанных сообщений. Опер по вызову (1-23 серии из 28) (Тарас Ткаченко ) [2018, детектив, криминал, WEB-DL 720p]

6 | 4

13.2 ГБ

В этой теме нет новых непрочитанных сообщений. Опер по вызову (1-13 серии из 28) (Тарас Ткаченко ) [2018, детектив, криминал, WEB-DL 720p]

2 | 0

8.06 ГБ

В этой теме нет новых непрочитанных сообщений. Опер по вызову (1-26 серии из 28) (Тарас Ткаченко) [2018, детектив, криминал, WEB-DLRip-AVC]

4 | 0

14.89 ГБ

В этой теме нет новых непрочитанных сообщений. Опер по вызову (1-25 серии из 28) (Тарас Ткаченко) [2018, детектив, криминал, WEB-DLRip-AVC]

2 | 0

14.33 ГБ

В этой теме нет новых непрочитанных сообщений. Опер по вызову (1-10 серии из 28) (Тарас Ткаченко) [2018, детектив, криминал, WEB-DLRip]

14 | 4

5.86 ГБ

В этой теме нет новых непрочитанных сообщений. Опер по вызову (1-16 серии из 28) (Тарас Ткаченко ) [2018, детектив, криминал, SATRip-AVC]

4 | 4

8.38 ГБ




Вы не можете начинать темы
Вы не можете отвечать на сообщения
Вы не можете редактировать свои сообщения
Вы не можете удалять свои сообщения
Вы не можете добавлять вложения

Перейти:  
 Вход
ppkBB3cker v.2 © 2008-2014 @ PPK
[ Time : 0.303s | 17 Queries | GZIP : Off ]

cron