img image001 image001 image001 image001 image001 image001 image001 image001 image001 image001 image001 image001 image001 image001 image001 image001

Planets Sun Sun Sun
Статистика раздачи
Автор: Снежана | Размер: 6.45 ГБ | Добавлен: 25 май 2018
Раздают: 20    Качают: 12
Скачать торрент
Скачать торрент
Описание торрента

СообщениеДобавлено: 25 май 2018 

Мост (1-8 серии из 10)

Перевод: Не требуется, cубтитры: отсутствуют
Формат: HDTVRip-AVC, MKV, H.264, AC3
Страна: Россия
Режиссер: Константин Статский, Максим Василенко
Жанр: детектив, криминал
Всего серий: 10
Продолжительность: 8 х ~ 00:52:00
Год выпуска: 2017

В ролях: Ингеборга Дапкунайте, Михаил Пореченков, Вадим Сквирский, Александр Марушев, Алексей Митин, Татьяна Рябоконь, Гуйдо Кангур, Элина Пяхклимяги, Александр Куйкка, Кристян Сарв, Владимир Чернышов, Анна Табанина, Павел Стонт, Владимир Крылов, Виталий Коваленко, Меелис Ряммельд, Оксана Базилевич, Николай Данилов, Иван Кожевников (IV), Андрей Астраханцев, Михаил Лучко, Константин Шелестун, Ольга Альбанова, Андрей Феськов, Мария Скуратова (II), Алёна Кучкова, Михаил Елисеев, Алиса Миронова, Никита Плащевский, Алёна Савастова, Владимир Селезнёв (II), Александра Серебрякова, Алексей Красноцветов

Описание: Российская версия популярного шведско-датского детективного сериала «Мост». Мост, связывающий Россию и Эстонию, внезапно погружается в темноту. Когда свет зажигается вновь, посередине моста, на условной пограничной линии, обнаруживают тело. Назначается совместное российско-эстонское расследование. Российскую сторону представляет следователь Максим Казанцев, а эстонскую – инспектор Инга Веермаа. Вместе им предстоит расследовать цепочку преступлений, которые хорошо подготовлены, виртуозно исполнены и содержат «послания» обществу на тему социальной несправедливости. Постепенно Инга и Максим понимают, что преступник только изображает из себя борца за правду, в основе его действий лежит мотив личной мести, и главный враг – сам Максим…

Рейтинг и доп. информация:


Видео: 1024x432, (2,40:1), 25 fps, AVC MPEG-4 (x264), ~ 2000 kbps , 0.181 bit/pixel
Аудио: 48 kHz, АС3, 2/0 (L,R), ~192.00 kbps avg
Внимание! Раздача ведётся путём добавления новых серий. При каждом добавлении создаётся новый торрент.
Чтобы начать докачку новой серии, пользователям необходимо сделать следующее:
1. Остановить скачивание.
2. Удалить старый торрент у себя из клиента (старые серии удалять не надо).
3. Скачать новый торрент и запустить его у себя в клиенте вместо старого, при этом указать клиенту путь в старую папку куда и должно происходить скачивание новых серий. Ваш клиент при этом должен произвести хеширование (проверку) старой папки и будет докачивать только те серии, которых у вас ещё нет. Старые серии при этом не удаляются, а продолжают раздаваться! Eсли вы уже удалили старые серии, то предотвратить повторную закачку старых серий можно, отжав галочку в соответствующих местах при запуске нового торрента.


Общее
Уникальный идентификатор : 179345903676825888056658176680544833946 (0x86ECC3BEC14122EBA6C9366F3D32119A)
Полное имя : C:\Most.(2017).HDTVRip.(AVC).Files-x\01.Most.(2017).HDTVRip.AVC.by.Серый1779.Files-x.mkv
Формат : Matroska
Версия формата : Version 2
Размер файла : 806 Мбайт
Продолжительность : 51 м. 23 с.
Общий поток : 2194 Кбит/сек
Дата кодирования : UTC 2018-05-21 22:18:44
Программа кодирования : mkvmerge v7.8.0 ('River Man') 32bit built on Apr 3 2015 12:11:22
Библиотека кодирования : libebml v1.3.1 + libmatroska v1.4.2

Видео
Идентификатор : 1
Формат : AVC
Формат/Информация : Advanced Video Codec
Профиль формата :
Настройки формата : CABAC / 9 Ref Frames
Параметр CABAC формата : Да
Параметр RefFrames формата : 9 кадров
Идентификатор кодека : V_MPEG4/ISO/AVC
Продолжительность : 51 м. 23 с.
Битрейт : 2000 Кбит/сек
Ширина : 1024 пикселя
Высота : 432 пикселя
Соотношение сторон : 2,40:1
Режим частоты кадров : Постоянный
Частота кадров : 25,000 кадров/сек
Цветовое пространство : YUV
Субдискретизация насыщенности : 4:2:0
Битовая глубина : 8 бит
Тип развёртки : Прогрессивная
Бит/(Пиксели*Кадры) : 0.181
Размер потока : 720 Мбайт (89%)
Библиотека кодирования : x264 core 146 r2538 121396c
Настройки программы : cabac=1 / ref=9 / deblock=1:-2:-1 / analyse=0x3:0x133 / me=umh / subme=9 / psy=1 / psy_rd=1.00:0.15 / mixed_ref=1 / me_range=32 / chroma_me=1 / trellis=2 / 8x8dct=1 / cqm=0 / deadzone=21,11 / fast_pskip=0 / chroma_qp_offset=-3 / threads=18 / lookahead_threads=3 / sliced_threads=0 / nr=0 / decimate=1 / interlaced=0 / bluray_compat=0 / constrained_intra=0 / bframes=9 / b_pyramid=2 / b_adapt=2 / b_bias=0 / direct=1 / weightb=1 / open_gop=0 / weightp=2 / keyint=250 / keyint_min=25 / scenecut=40 / intra_refresh=0 / rc=2pass / mbtree=0 / bitrate=2000 / ratetol=1.0 / qcomp=0.60 / qpmin=0 / qpmax=69 / qpstep=4 / cplxblur=20.0 / qblur=0.5 / ip_ratio=1.40 / pb_ratio=1.30 / aq=2:1.00
Default : Да
Forced : Нет
Цветовой диапазон : Limited
Основные цвета : BT.709
Характеристики трансфера : BT.709
Коэффициенты матрицы : BT.709

Аудио
Идентификатор : 2
Формат : AC-3
Формат/Информация : Audio Coding 3
Идентификатор кодека : A_AC3
Продолжительность : 51 м. 23 с.
Вид битрейта : Постоянный
Битрейт : 192 Кбит/сек
Каналы : 2 канала
Расположение каналов : Front: L R
Частота : 48,0 КГц
Частота кадров : 31,250 кадров/сек (1536 SPF)
Битовая глубина : 16 бит
Метод сжатия : С потерями
Размер потока : 70,6 Мбайт (9%)
ServiceKind/String : Complete Main
Default : Да
Forced : Нет








   Похожие торренты   Торрент   Размер 
В этой теме нет новых непрочитанных сообщений. Мост (1-2 серии из 20) (Константин Статский, Максим Василенко) [2017, детектив, криминал, HDTVRip-AVC]

13 | 0

1.6 ГБ

В этой теме нет новых непрочитанных сообщений. Мост (1-10 серии из 10) (Константин Статский, Максим Василенко) [2017, детектив, криминал, HDTVRip-AVC]

57 | 10

8.03 ГБ

В этой теме нет новых непрочитанных сообщений. Мост (1-8 серии из 10) (Константин Статский, Максим Василенко) [2017, детектив, криминал, HDTVRip]

8 | 4

3.49 ГБ

В этой теме нет новых непрочитанных сообщений. Мост (1-10 серии из 10) (Константин Статский, Максим Василенко) [2017, детектив, криминал, HDTVRip]

209 | 21

4.36 ГБ

В этой теме нет новых непрочитанных сообщений. Мост (1-10 серии из 10) (Константин Статский, Максим Василенко) [2017, детектив, криминал, HDTVRip 720p]

17 | 4

16.78 ГБ

В этой теме нет новых непрочитанных сообщений. Мост (1-10 серии из 10) (Константин Статский, Максим Василенко) [2017, детектив, криминал, WEBRip]

174 | 54

6.38 ГБ

В этой теме нет новых непрочитанных сообщений. Мост (1-2 серии из 20) (Константин Статский, Максим Василенко) [2017, детектив, криминал, SATRip]

12 | 0

1.5 ГБ




Вы не можете начинать темы
Вы не можете отвечать на сообщения
Вы не можете редактировать свои сообщения
Вы не можете удалять свои сообщения
Вы не можете добавлять вложения

Перейти:  
 Вход
ppkBB3cker v.2 © 2008-2014 @ PPK
[ Time : 0.049s | 18 Queries | GZIP : Off ]

cron