img image001 image001 image001 image001 image001 image001 image001 image001 image001 image001 image001 image001 image001 image001 image001 image001

Planets Sun Sun Sun
Статистика раздачи
Автор: Снежана | Размер: 2.18 ГБ | Добавлен: 25 май 2018
Раздают: 15    Качают: 0
Скачать торрент
Скачать торрент
Описание торрента

СообщениеДобавлено: 25 май 2018 

Ограбление по-итальянски / The Italian Job

Перевод: Профессиональный (полное дублирование)
Субтитры: Русские
Формат: WEB-DLRip-AVC, MKV, H.264, AC3
Страна: США, Франция, Великобритания, Италия
Режиссер: Ф. Гэри Грей
Жанр: боевик, триллер, криминал
Продолжительность: 01:50:41
Год выпуска: 2003

В ролях: Марк Уолберг, Шарлиз Терон, Дональд Сазерленд, Джейсон Стэтхэм, Сет Грин, Мос Деф, Эдвард Нортон, Фаусто Каллегарини, Стефано Петронелли, Фабио Скарпа

Описание: Джон Бриджер всегда умел спланировать идеальное ограбление. Вместе со своей командой опытных бандитов он провернул не одно дело, но теперь решил уйти на покой. Впереди у Бриджера последнее задание: кража золотых слитков, в которой принимают участие инсайдер Стив, водитель Роб, взрыватель Левое ухо, технарь Лайл и Чарли — верный друг Бриджера и второй «планировщик» в их команде. Ограбление, изящное и быстрое, было разыграно как по нотам, но после его завершения веселье преступников было омрачено предательством…



Видео: 1024x576 (16:9), 23.976 fps, AVC MPEG-4 (H.264), ~2433 kbps, 0.172 bit/pixel
Аудио: 48 kHz, AC3 Dolby Digital, 6 ch, ~384 kbps

Формат : Matroska
Версия формата : Version 4 / Version 2
Размер файла : 2,18 Гбайт
Продолжительность : 1 ч. 50 м.
Общий поток : 2817 кбит/сек
Программа кодирования : mkvmerge v8.3.0 ('Over the Horizon') 64bit
Библиотека кодирования : libebml v1.3.1 + libmatroska v1.4.2

Видео
Идентификатор : 1
Формат : AVC
Формат/Информация : Advanced Video Codec
Профиль формата :
Параметр CABAC формата : Да
Параметр ReFrames формата : 10 кадров
Идентификатор кодека : V_MPEG4/ISO/AVC
Продолжительность : 1 ч. 50 м.
Вид битрейта : Переменный
Битрейт : 2433 кбит/сек
Ширина : 1024 пикселей
Высота : 576 пикселей
Соотношение сторон : 16:9
Режим частоты кадров : Постоянный
Частота кадров : 23,976 кадра/сек
Цветовое пространство : YUV
Субдискретизация насыщенности : 4:2:0
Битовая глубина : 8 бит
Тип развёртки : Прогрессивная
Бит/(Пиксели*Кадры) : 0.172
Размер потока : 1,88 Гбайт (86%)
Язык : English
Default : Да
Forced : Нет

Аудио
Идентификатор : 2
Формат : AC-3
Формат/Информация : Audio Coding 3
Расширение режима : CM (complete main)
Параметр Endianness формата : Big
Идентификатор кодека : A_AC3
Продолжительность : 1 ч. 50 м.
Вид битрейта : Постоянный
Битрейт : 384 Кбит/сек
Каналы : 6 каналов
Расположение каналов : Front: L C R, Side: L R, LFE
Частота : 48,0 КГц
Битовая глубина : 16 бит
Метод сжатия : С потерями
Размер потока : 304 Мбайт (14%)
Язык : Russian
Default : Да
Forced : Нет

Текст #1
Идентификатор : 3
Формат : UTF-8
Идентификатор кодека : S_TEXT/UTF8
Идентификатор кодека/Информация : UTF-8 Plain Text
Язык : Russian
Default : Да
Forced : Да

Текст #2
Идентификатор : 4
Формат : UTF-8
Идентификатор кодека : S_TEXT/UTF8
Идентификатор кодека/Информация : UTF-8 Plain Text
Язык : Russian
Default : Нет
Forced : Нет












   Похожие торренты   Торрент   Размер 
В этой теме нет новых непрочитанных сообщений. Ограбление по-итальянски / The Italian Job (Ф. Гэри Грей) [Open Matte] [2003, боевик, триллер, криминал, WEB-DLRip] DUB / Боевики /Action

11 | 3

1.45 ГБ

В этой теме нет новых непрочитанных сообщений. Ограбление по-итальянски / The Italian Job (Ф. Гэри Грей) [2003, боевик, триллер, криминал, BDRip] DUB / Боевики /Action

5 | 0

1.45 ГБ

В этой теме нет новых непрочитанных сообщений. Ограбление по-итальянски / The Italian Job (Ф. Гэри Грей) [2003, боевик, триллер, криминал, LowHDRip-AVC] DUB / Боевики /Action

8 | 2

746.44 МБ

В этой теме нет новых непрочитанных сообщений. Одиночка / A Man Apart (Ф. Гэри Грей) [Open Matte] [2003, боевик, триллер, драма, криминал, HDRip] MVO / Боевики /Action

3 | 0

1.46 ГБ

В этой теме нет новых непрочитанных сообщений. От колыбели до могилы / Cradle 2 the Grave [Open Matte] (Анджей Бартковяк) [2003, боевик, триллер, драма, криминал, WEB-DLRip-AVC] MVO / Боевики /Action

3 | 0

745.73 МБ

В этой теме нет новых непрочитанных сообщений. От колыбели до могилы / Cradle 2 the Grave [Open Matte] (Анджей Бартковяк) [2003, боевик, триллер, драма, криминал, WEB-DLRip-AVC] MVO / Боевики /Action

3 | 0

1.45 ГБ

В этой теме нет новых непрочитанных сообщений. Форсаж 8 / The Fate of the Furious (Ф. Гэри Грей) [2017, боевик, триллер, криминал, BDRip] DUB / Боевики /Action

74 | 9

2.18 ГБ




Вы не можете начинать темы
Вы не можете отвечать на сообщения
Вы не можете редактировать свои сообщения
Вы не можете удалять свои сообщения
Вы не можете добавлять вложения

Перейти:  
 Вход
ppkBB3cker v.2 © 2008-2014 @ PPK
[ Time : 0.034s | 18 Queries | GZIP : Off ]

cron