img image001 image001 image001 image001 image001 image001 image001 image001 image001 image001 image001 image001 image001 image001 image001 image001

Planets Sun Sun Sun
Статистика раздачи
Автор: PriZraK | Размер: 7.62 ГБ | Добавлен: 20 июн 2018
Раздают: 28    Качают: 7
Скачать торрент
Скачать торрент
Описание торрента

СообщениеДобавлено: 20 июн 2018 

25-й час (1 сезон: 1-12 серия из 12)

Перевод: Не требуется, cубтитры: Украинские
Формат: SATRip, AVI, XviD, AC3
Страна: Россия, Украина
Режиссер: Николай Михайлов (III)
Жанр: криминал, фантастика, драма
Всего серий: 16
Продолжительность: 12 х ~ 00:50:00
Год выпуска: 2015
В ролях: Татьяна Арнтгольц, Жанна Эппле, Антон Хабаров, Александр Кобзарь, Таисия Шипилова, Николай Иванов (II), Николай Боклан, Виктория Билан, Валерий Сковронский, Сергей Романюк, Фёдор Гуринец, Бесо Гатаев, Вероника Лукьяненко, Константин Самоуков, Пётр Сова, Евгений Капорин, Сергей Сафрончик
Описание:
Анна - журналистка, которая обладает даром поворачивать время вспять. Она обладает способностью, которой, возможно, больше нет ни у кого на свете. Эта способность досталась ей, лучшей журналистке популярной в городе газеты "24 часа", во время одного из освещаемых ею происшествий. Анна спасла внука старого часовщика. В знак благодарности старик подарил ей необычные часы, которые, как оказалось, могли "отмотать" время назад на один час, тем самым дав девушке возможность исправить ситуацию. Они включаются каждый раз, когда Анна или близкие ей люди попадают в настоящую беду. Девушка использует свой дар, чтобы предотвращать человеческие трагедии, свидетелем которых так часто приходится становиться журналисту.



Видео: 720x400 (16:9), 25 fps, XviD MPEG-4 ~1569 kbps avg, 0.218 bit/pix
Аудио: 48 kHz, АС3, 2 ch, (Front: L R) ~192.00 kbps avg

Общее
Полное имя : C:\Users\Downloads\25-chas.2016.SATRip.Files-x\01.25-chas.2016.SATRip.Files-x.avi
Формат : AVI
Формат/Информация : Audio Video Interleave
Размер файла : 650 Мбайт
Продолжительность : 51 м.
Общий поток : 1770 Кбит/сек
Программа кодирования : VirtualDubMod 1.5.10.3 | www.virtualdub-fr.org || (build 2550/release)
Библиотека кодирования : VirtualDubMod build 2550/release

Видео
Идентификатор : 0
Формат : MPEG-4 Visual
Профиль формата : Advanced Simple@L5
Параметр BVOP формата : 1
Параметр QPel формата : Нет
Параметр GMC формата : Без точки перехода
Параметр матрицы формата : Выборочная
Идентификатор кодека : XVID
Идентификатор кодека/Подсказка : XviD
Продолжительность : 51 м.
Битрейт : 1569 Кбит/сек
Ширина : 720 пикселей
Высота : 400 пикселей
Соотношение сторон : 16:9
Частота кадров : 25,000 кадров/сек
Цветовое пространство : YUV
Субдискретизация насыщенности : 4:2:0
Битовая глубина : 8 бит
Тип развёртки : Прогрессивная
Метод сжатия : С потерями
Бит/(Пиксели*Кадры) : 0.218
Размер потока : 576 Мбайт (89%)
Библиотека кодирования : XviD 73

Аудио
Идентификатор : 1
Формат : AC-3
Формат/Информация : Audio Coding 3
Расширение режима : CM (complete main)
Параметр Endianness формата : Big
Идентификатор кодека : 2000
Продолжительность : 51 м.
Вид битрейта : Постоянный
Битрейт : 192 Кбит/сек
Каналы : 2 канала
Расположение каналов : Front: L R
Частота : 48,0 КГц
Битовая глубина : 16 бит
Метод сжатия : С потерями
Размер потока : 70,5 Мбайт (11%)
Выравнивание : Разделение по промежуткам
Продолжительность промежутка : 40 мс. (1,00 видеокадр)
Время предзагрузки промежутка : 500 мс.








   Похожие торренты   Торрент   Размер 
В этой теме нет новых непрочитанных сообщений. Я - зомби, 2 сезон 1-11 серия из 13 / iZombie [BaibaKo] (Роб Томас, Майрзи Алмас) [2015, ужасы, фантастика, драма, криминал, WEB-DLRip, P]

67 | 151

6.16 ГБ

В этой теме нет новых непрочитанных сообщений. Я - зомби, 3 сезон 1-12 серия из 13 / iZombie [BaibaKo] (Роб Томас, Майрзи Алмас) [2017, ужасы, фантастика, драма, криминал, WEB-DLRip, P]

24 | 36

6.81 ГБ

В этой теме нет новых непрочитанных сообщений. Я - зомби, 3 сезон 1-13 серия из 13 / iZombie [ColdFilm] (Роб Томас, Майрзи Алмас) [2017, ужасы, фантастика, драма, криминал, WEB-DLRip, L]

4 | 2

5.71 ГБ

В этой теме нет новых непрочитанных сообщений. Я - зомби, 3 сезон 1-12 серия из 13 / iZombie [ColdFilm] (Роб Томас, Майрзи Алмас) [2017, ужасы, фантастика, драма, криминал, WEB-DLRip, L]

0 | 0

5.23 ГБ

В этой теме нет новых непрочитанных сообщений. Я - зомби, 4 сезон 1-7 серия из 13 / iZombie [IdeaFilm] (Роб Томас, Майрзи Алмас) [2018, ужасы, фантастика, драма, криминал, WEBRip, P]

6 | 5

3.97 ГБ

В этой теме нет новых непрочитанных сообщений. Я - зомби, 3 сезон 1-13 серия из 13 / iZombie [BaibaKo] (Роб Томас, Майрзи Алмас) [2017, ужасы, фантастика, драма, криминал, WEB-DLRip, P]

33 | 40

7.38 ГБ

В этой теме нет новых непрочитанных сообщений. Я - зомби, 4 сезон 1-7 серия из 13 / iZombie [IdeaFilm] (Роб Томас, Майрзи Алмас) [2018, ужасы, фантастика, драма, криминал, WEBRip 1080p, P]

4 | 4

16.11 ГБ




Вы не можете начинать темы
Вы не можете отвечать на сообщения
Вы не можете редактировать свои сообщения
Вы не можете удалять свои сообщения
Вы не можете добавлять вложения

Перейти:  
 Вход
ppkBB3cker v.2 © 2008-2014 @ PPK
[ Time : 0.031s | 18 Queries | GZIP : Off ]

cron