img image001 image001 image001 image001 image001 image001 image001 image001 image001 image001 image001 image001 image001 image001 image001 image001

Planets Sun Sun Sun
Статистика раздачи
Автор: PriZraK | Размер: 3.57 ГБ | Добавлен: 20 июн 2018
Раздают: 18    Качают: 2
Скачать торрент
Скачать торрент
Описание торрента

СообщениеДобавлено: 20 июн 2018 

Лощина / The Hollow


Перевод: Профессиональный (многоголосый, закадровый) IdeaFilm
Субтитры: отсутствуют
Формат: WEB-DLRip, AVI, XviD, AC3
Страна: США
Режиссер: Джош Мепхем, Грег Салливан
Жанр: Мультфильм, фантастика, драма
Всего серий: 10
Продолжительность: 10 x ~ 00:24:00
Год выпуска: 2018

В ролях: Эшли Болл, Коннор Парнолл, Адриан Петрив, Марк Хилдрет, Диана Каарина, Джесси Мосс, Алекс Бармия, Николь Оливер, Йен Джеймс Корлетт, Майкл Дэйнджерфилд

Описание: Подростки Адам, Кай и Мира просыпаются в незнакомом подземном бункере и должны отыскать дорогу домой. На этом пути им встретятся обитатели странных городов, таинственные временные порталы и опасные существа.



Видео: 720x400 (16:9), 23,976 fps, XviD MPEG-4 ~1772 kbps avg, 0.257 bit/pixel
Аудио #1 Rus: 48 kHz, AC3 Dolby Digital, 3/2 (L,C,R,l,r) + LFE ch, ~384 kbps

Внимание, присутствует реклама!


Video
ID : 0
Format : MPEG-4 Visual
Format profile : Advanced Simple@L5
Format settings, BVOP : 2
Format settings, QPel : No
Format settings, GMC : No warppoints
Format settings, Matrix : Default (H.263)
Muxing mode : Packed bitstream
Codec ID : XVID
Codec ID/Hint : XviD
Duration : 23 min 34 s
Bit rate : 1 772 kb/s
Width : 720 pixels
Height : 400 pixels
Display aspect ratio : 16:9
Frame rate : 23.976 (24000/1001) FPS
Color space : YUV
Chroma subsampling : 4:2:0
Bit depth : 8 bits
Scan type : Progressive
Compression mode : Lossy
Bits/(Pixel*Frame) : 0.257
Stream size : 299 MiB (82%)
Writing library : XviD 73

Audio
ID : 1
Format : AC-3
Format/Info : Audio Coding 3
Format settings, Endianness : Big
Codec ID : 2000
Duration : 23 min 34 s
Bit rate mode : Constant
Bit rate : 384 kb/s
Channel(s) : 6 channels
Channel positions : Front: L C R, Side: L R, LFE
Sampling rate : 48.0 kHz
Frame rate : 31.250 FPS (1536 SPF)
Bit depth : 16 bits
Compression mode : Lossy
Stream size : 64.7 MiB (18%)
Alignment : Aligned on interleaves
Interleave, duration : 42 ms (1.00 video frame)
Interleave, preload duratio : 512 ms
Service kind : Complete Main





   Похожие торренты   Торрент   Размер 
В этой теме нет новых непрочитанных сообщений. Лощина, 1 сезон 1-10 серии из 10 / The Hollow (Джош Мепхем, Грег Салливан) [2018, мультфильм, фантастика, драма, WEB-DLRip 1080p] MVO+Original / Мультфильмы (HD/BD Video)

4 | 2

12.65 ГБ

В этой теме нет новых непрочитанных сообщений. Лощина, 1 сезон 1-10 серии из 10 / The Hollow (Джош Мепхем, Грег Салливан) [2018, мультфильм, фантастика, драма, WEB-DLRip 720p] MVO+Original / Мультфильмы (HD/BD Video)

15 | 8

7.75 ГБ

В этой теме нет новых непрочитанных сообщений. Космо-Рубеж, 1 сезон 1-9 серии из 10 / Final Space (Олэн Роджерс) [2018, приключения, фантастика, мультфильм, WEB-DLRip] DVO +Original

4 | 6

2.05 ГБ

В этой теме нет новых непрочитанных сообщений. Космо-Рубеж, 1 сезон 1-6 серии из 10 / Final Space (Олэн Роджерс) [2018, приключения, фантастика, мультфильм, WEB-DLRip] DVO +Original

3 | 6

1.43 ГБ

В этой теме нет новых непрочитанных сообщений. Космо-Рубеж, 1 сезон 1-7 серии из 10 / Final Space (Олэн Роджерс) [2018, приключения, фантастика, мультфильм, WEB-DLRip] DVO +Original

10 | 4

1.64 ГБ

В этой теме нет новых непрочитанных сообщений. Космо-Рубеж, 1 сезон 1-10 серии из 10 / Final Space (Олэн Роджерс) [2018, приключения, фантастика, мультфильм, WEB-DLRip] DVO +Original

6 | 5

2.26 ГБ

В этой теме нет новых непрочитанных сообщений. Космо-Рубеж, 1 сезон 1-5 серии из 6 / Final Space (Олэн Роджерс) [2018, приключения, фантастика, мультфильм, WEB-DLRip] DVO +Original

2 | 6

1.22 ГБ




Вы не можете начинать темы
Вы не можете отвечать на сообщения
Вы не можете редактировать свои сообщения
Вы не можете удалять свои сообщения
Вы не можете добавлять вложения

Перейти:  
 Вход
ppkBB3cker v.2 © 2008-2014 @ PPK
[ Time : 0.020s | 15 Queries | GZIP : Off ]

cron