img image001 image001 image001 image001 image001 image001 image001 image001 image001 image001 image001 image001 image001 image001 image001 image001

Planets Sun Sun Sun
Статистика раздачи
Автор: Снежана | Размер: 11.97 ГБ | Добавлен: 22 июн 2018
Раздают: 94    Качают: 8
Скачать торрент
Скачать торрент
Описание торрента

СообщениеДобавлено: 22 июн 2018 

Операция «Мухаббат» (1-9 серия из 9)


Перевод: Не требуется
Cубтитры: отсутствуют
Формат: HDTVRip 720p, MKV, H.264, AC3
Страна: Россия, Украина
Режиссер: Олег Фомин
Жанр: драма, мелодрама, триллер, военный, приключения
Всего серий: 9
Продолжительность: 9 x ~ 00:50:00
Год выпуска: 2018
В ролях: Илья Малаков, Сергей Пускепалис, Сергей Стрельников, Аглая Тарасова, Максим Лагашкин, Денис Никифоров, Александр Лазарев (мл.), Полина Лазарева, Алан Догузов, Юлия Погребиньская, Любовь Томилова, Дмитрий Марьянов, Наталия Антонова, Артём Шкляев, Борис Богданов, Юлия Юрченко, Дмитрий Иосифов, Денис Константинов

Описание: 1984 год. СССР втянут в затянувшийся военный конфликт в Афганистане. В стране перестройка, «холодная война» в самом разгаре. На этом фоне развивается история двух влюбленных - Мити и Ани, которые волей судьбы оказались разлучены. Родители Ани – диссиденты – вынуждены были вместе с дочерью эмигрировать в Америку. Митя остается в СССР. Его отец – генерал разведки, советник генсека, активно выступает за вывод войск из Афганистана. США хотят продолжения войны и развала СССР, потому они намерены дискредитировать генерала. Любовь Мити и Ани им на руку, молодых людей можно использовать в большой игре. Разрабатывается операция под названием «Мухаббат» – американский агент по имени Джейн организует встречу ничего не подозревающих влюбленных в Кабуле. Оказавшись в Афганистане, они попадают в эпицентр опасных событий.



Видео: 1280x576 (2,222), 25.000 fps, AVC MPEG-4 (x264), High@L4,1, ~ 3 500 Кбит/сек, 0,190 bit/pixel
Аудио: 48 kHz, AC3 Dolby Digital, 2/0 (L,R) ch, ~192.00 kbps avg

Общее
Уникальный идентификатор : 238134627835148062779297884562099081034 (0xB3270FA1418D0C99944D53E928090F4A)
Полное имя : E:\Закачка-2\01.Operacija Muhabbat.HDTVRip.(720p).GeneralFilm.mkv
Формат : Matroska
Версия формата : Version 2
Размер файла : 1,31 Гбайт
Продолжительность : 50 м.
Общий поток : 3693 Кбит/сек
Дата кодирования : UTC 2018-04-23 20:22:23
Программа кодирования : mkvmerge v6.1.0 ('Old Devil') built on Mar 4 2013 09:10:42
Библиотека кодирования : libebml v1.3.0 + libmatroska v1.4.0

Видео
Идентификатор : 1
Формат : AVC
Формат/Информация : Advanced Video Codec
Профиль формата :
Параметр CABAC формата : Да
Параметр ReFrames формата : 9 кадров
Идентификатор кодека : V_MPEG4/ISO/AVC
Продолжительность : 50 м.
Битрейт : 3500 Кбит/сек
Ширина : 1280 пикселей
Высота : 576 пикселей
Соотношение сторон : 2,222
Режим частоты кадров : Постоянный
Частота кадров : 25,000 кадров/сек
Цветовое пространство : YUV
Субдискретизация насыщенности : 4:2:0
Битовая глубина : 8 бит
Тип развёртки : Прогрессивная
Бит/(Пиксели*Кадры) : 0.190
Размер потока : 1,22 Гбайт (93%)
Библиотека кодирования : x264 core 130 r2273 b3065e6
Настройки программы : cabac=1 / ref=9 / deblock=1:-2:-1 / analyse=0x3:0x133 / me=umh / subme=9 / psy=1 / psy_rd=1.00:0.15 / mixed_ref=1 / me_range=32 / chroma_me=1 / trellis=2 / 8x8dct=1 / cqm=0 / deadzone=21,11 / fast_pskip=0 / chroma_qp_offset=-3 / threads=18 / lookahead_threads=3 / sliced_threads=0 / nr=0 / decimate=0 / interlaced=0 / bluray_compat=0 / constrained_intra=0 / bframes=9 / b_pyramid=2 / b_adapt=2 / b_bias=0 / direct=3 / weightb=1 / open_gop=0 / weightp=2 / keyint=250 / keyint_min=25 / scenecut=40 / intra_refresh=0 / rc=2pass / mbtree=0 / bitrate=3500 / ratetol=1.0 / qcomp=0.60 / qpmin=0 / qpmax=69 / qpstep=4 / cplxblur=20.0 / qblur=0.5 / ip_ratio=1.40 / pb_ratio=1.30 / aq=2:1.00
Default : Да
Forced : Нет
Цветовой диапазон : Limited
Основные цвета : BT.709
Характеристики трансфера : BT.709
Коэффициенты матрицы : BT.709

Аудио
Идентификатор : 2
Формат : AC-3
Формат/Информация : Audio Coding 3
Расширение режима : CM (complete main)
Параметр Endianness формата : Big
Идентификатор кодека : A_AC3
Продолжительность : 50 м.
Вид битрейта : Постоянный
Битрейт : 192 Кбит/сек
Каналы : 2 канала
Расположение каналов : Front: L R
Частота : 48,0 КГц
Частота кадров : 31,250 кадров/сек (1536 spf)
Метод сжатия : С потерями
Размер потока : 69,8 Мбайт (5%)
Default : Да
Forced : Нет










   Похожие торренты   Торрент   Размер 
В этой теме нет новых непрочитанных сообщений. Операция «Мухаббат» (1-3 серия из 9) (Олег Фомин) [2018, драма, мелодрама, триллер, военный, приключения, HDTVRip 720p]

4 | 0

3.82 ГБ

В этой теме нет новых непрочитанных сообщений. Операция «Мухаббат» (1-3 серия из 9) (Олег Фомин) [2018, драма, мелодрама, триллер, военный, приключения, WEB-DLRip]

8 | 0

1.87 ГБ

В этой теме нет новых непрочитанных сообщений. Операция «Мухаббат» (1-9 серия из 9) (Олег Фомин) [2018, драма, мелодрама, триллер, военный, приключения, WEB-DLRip]

150 | 5

5.69 ГБ

В этой теме нет новых непрочитанных сообщений. Операция «Мухаббат» (1-9 серии из 9) (Олег Фомин) [2018, драма, мелодрама, триллер, военный, приключения, HDTVRip-AVC]

52 | 4

7.76 ГБ

В этой теме нет новых непрочитанных сообщений. Операция «Мухаббат» (1-7 серии из 9) (Олег Фомин) [2018, драма, мелодрама, триллер, военный, приключения, WEB-DLRip-AVC]

2 | 0

3.84 ГБ

В этой теме нет новых непрочитанных сообщений. Операция «Мухаббат» (1-9 серии из 9) (Олег Фомин) [2018, драма, мелодрама, триллер, военный, приключения, SATRip]

146 | 16

6.19 ГБ

В этой теме нет новых непрочитанных сообщений. Операция «Мухаббат» (1-9 серии из 9) (Олег Фомин) [2018, драма, мелодрама, триллер, военный, приключения, WEB-DLRip-AVC]

22 | 2

5.85 ГБ




Вы не можете начинать темы
Вы не можете отвечать на сообщения
Вы не можете редактировать свои сообщения
Вы не можете удалять свои сообщения
Вы не можете добавлять вложения

Перейти:  
 Вход
ppkBB3cker v.2 © 2008-2014 @ PPK
[ Time : 0.040s | 15 Queries | GZIP : Off ]

cron