img image001 image001 image001 image001 image001 image001 image001 image001 image001 image001 image001 image001 image001 image001 image001 image001

Planets Sun Sun Sun
Статистика раздачи
Автор: Снежана | Размер: 14.3 ГБ | Добавлен: 16 июл 2018
Раздают: 20    Качают: 2
Скачать торрент
Скачать торрент
Описание торрента

СообщениеДобавлено: 16 июл 2018 

Мертв на 99% (1-10 серии из 10)

Перевод: Не требуется, cубтитры: отсутствуют
Формат: WEB-DL 1080p, MKV, H.264, AC3
Страна: Россия
Режиссер: Степан Коршунов
Жанр: боевик, детектив, драма, криминал
Всего серий: 10
Продолжительность: 10 x ~ 00:50:00
Год выпуска: 2017

В ролях: Алексей Чадов, Анна Старшенбаум, Олег Тактаров, Константин Адаев, Александр Наумов, Борис Хвошнянский, Анна Попова, Сабина Ахмедова, Олег Мазуров, Олег Морозов, Евгения Храповицкая, Вероника Тимофеева, Александра Чичкова, Александр Цереня, Максим Амельченко, Вадим Утенков, Григорий Зельцер, Павел Афонькин, Алексей Матошин, Максим Митяшин, Александр Красовский, Алексей Фаддеев, Дмитрий Бероев, Анна Бачалова, Константин Новиков (II), Сергей Каплунов, Сергей Алимпиев, Александр Кульков, Пётр Королёв (II), Виталий Ходин, Галина Звягинцева

Описание: Артём умеет красиво зарабатывать деньги и легко с ними расставаться. Его жизнь напоминает сказку: дорогие спорткары, роскошные лофты, элитные рестораны и девушка-модель... Идиллия заканчивается, когда Артёма принимают за опасного преступника по кличке Змей. За Змеем охотятся и Интерпол, и агент ФСБ Хромов, и обманутые им торговцы оружием из Албании. У полковника Хромова есть сомнения, кто же на самом деле этот Змей? Может преступник присвоил внешность Артова и занял его место успешного архитектора? Чтобы вернуть себе имя и отстоять право на жизнь, Артёму предстоит выживать в огромном городе без денег, машины и документов.
«Жив тот, в кого ты веришь...»
Рейтинг и доп. информация:


Видео: 1920х816, (2,35:1), 25 fps, AVC MPEG-4 (x264), High@L4 ~ 4000 kbps avg, 0.102 bit/pixel
Аудио: 48 kHz, AC3, 2/0 (L,R) ch, ~192 kbps
Общее
Уникальный идентификатор : 250957563838055178496465269389021460885 (0xBCCCAB2FB39A078AA3D57A4E357CB995)
Полное имя : C:\Mertv.na.99%.2016.WEB-DL.(1080p).Nikolspup\Mertv.na.99%.(01.seriya.iz.10).2016.WEB-DL.(1080p).Nikolspup.mkv
Формат : Matroska
Версия формата : Version 4 / Version 2
Размер файла : 1,41 Гбайт
Продолжительность : 48 м. 8 с.
Режим общего битрейта : Переменный
Общий поток : 4188 Кбит/сек
Дата кодирования : UTC 2018-07-15 08:31:27
Программа кодирования : mkvmerge v7.8.0 ('River Man') 32bit built on Mar 27 2015 16:18:02
Библиотека кодирования : libebml v1.3.1 + libmatroska v1.4.2

Видео
Идентификатор : 1
Формат : AVC
Формат/Информация : Advanced Video Codec
Профиль формата : High@L4
Настройки формата : CABAC / 3 Ref Frames
Параметр CABAC формата : Да
Параметр RefFrames формата : 3 кадра
Идентификатор кодека : V_MPEG4/ISO/AVC
Продолжительность : 48 м. 8 с.
Вид битрейта : Переменный
Битрейт : 4000 Кбит/сек
Максимальный битрейт : 40,0 Мбит/сек
Ширина : 1920 пикселей
Высота : 816 пикселей
Соотношение сторон : 2,35:1
Режим частоты кадров : Постоянный
Частота кадров : 25,000 кадров/сек
Цветовое пространство : YUV
Субдискретизация насыщенности : 4:2:0
Битовая глубина : 8 бит
Тип развёртки : Прогрессивная
Бит/(Пиксели*Кадры) : 0.102
Размер потока : 1,32 Гбайт (93%)
Default : Да
Forced : Нет

Аудио
Идентификатор : 2
Формат : AC-3
Формат/Информация : Audio Coding 3
Идентификатор кодека : A_AC3
Продолжительность : 48 м. 8 с.
Вид битрейта : Постоянный
Битрейт : 192 Кбит/сек
Каналы : 2 канала
Расположение каналов : Front: L R
Частота : 48,0 КГц
Частота кадров : 31,250 кадров/сек (1536 SPF)
Битовая глубина : 16 бит
Метод сжатия : С потерями
Размер потока : 66,1 Мбайт (5%)
Язык : Russian
ServiceKind/String : Complete Main
Default : Да
Forced : Нет








   Похожие торренты   Торрент   Размер 
В этой теме нет новых непрочитанных сообщений. Мертв на 99% (1-10 серии из 10) (Степан Коршунов) [2017, боевик, детектив, драма, криминал, WEB-DLRip]

88 | 0

5.38 ГБ

В этой теме нет новых непрочитанных сообщений. Буду жить / Чемпион (1-2 серии из 2) (Андрей Коршунов) [2015, боевик, драма, криминал, HDTVRip]

11 | 0

2.17 ГБ

В этой теме нет новых непрочитанных сообщений. Буду жить / Чемпион (1-2 серии из 2) (Андрей Коршунов) [2015, боевик, драма, криминал, WEB-DLRip-AVC]

9 | 0

2.3 ГБ

В этой теме нет новых непрочитанных сообщений. Буду жить / Чемпион (1-2 серии из 2) (Андрей Коршунов) [2015, боевик, драма, криминал, HDTVRip-AVC]

2 | 0

2.76 ГБ

В этой теме нет новых непрочитанных сообщений. Буду жить / Чемпион (1-2 серии из 2) (Андрей Коршунов) [2015, боевик, драма, криминал, WEB-DLRip]

10 | 2

2.74 ГБ

В этой теме нет новых непрочитанных сообщений. Невский (1-30 серии из 30) (Андрей Коршунов, Алексей Павлов (V), Игорь Драка) [2015, боевик, детектив, криминал, WEBRip]

4 | 0

13.05 ГБ

В этой теме нет новых непрочитанных сообщений. Невский (1-30 серии из 30) (Андрей Коршунов, Алексей Павлов (V), Игорь Драка) [2015, боевик, детектив, криминал, WEB-DLRip-AVC]

0 | 3

19.04 ГБ




Вы не можете начинать темы
Вы не можете отвечать на сообщения
Вы не можете редактировать свои сообщения
Вы не можете удалять свои сообщения
Вы не можете добавлять вложения

Перейти:  
 Вход
ppkBB3cker v.2 © 2008-2014 @ PPK
[ Time : 0.043s | 16 Queries | GZIP : Off ]

cron