img image001 image001 image001 image001 image001 image001 image001 image001 image001 image001 image001 image001 image001 image001 image001 image001

Planets Sun Sun Sun
Статистика раздачи
Автор: Снежана | Размер: 2.19 ГБ | Добавлен: 16 июл 2018
Раздают: 129    Качают: 12
Скачать торрент
Скачать торрент
Описание торрента

СообщениеДобавлено: 16 июл 2018 

Суперполицейские 2 / Super Troopers 2


Перевод: Профессиональный (многоголосый закадровый) HDRezka Studio
Cубтитры: Английские (полные, SDH)
Формат: BDRip-AVC, MKV, H.264, AC3
Страна: США
Режиссер: Джей Чандрашекхар
Жанр: комедия, криминал, детектив
Продолжительность: 01:39:30
Год выпуска: 2018

В ролях: Шонн Уильям Скотт, Клифтон Коллинз мл., Стив Лемми, Эрик Столханске, Джей Чандрашекхар, Пол Сотер, Дэймон Уайанс мл., Кевин Хеффернан, Брайан Кокс, Мариса Кохлан, Брюс МакКаллок, Линда Картер

Описание: Фильм расскажет о безалаберных дорожных патрульных из маленького городка на границе США и Канады. Чтобы навести порядок на пограничной дороге и разрешить международный конфликт, пятёрка суперполицейских вынуждена сотрудничать со своими невыносимыми канадскими коллегами.



Видео: 1024x554 (1.85:1), 23,976 fps, AVC MPEG-4 (x264), ~ 2 508 kbps avg, 0.184 bit/pixel

Аудио#1: Русский: 48 kHz/16 bits, AC3 Dolby Digital, 2/0 (L,R) ch, ~192 kbps avg [Профессиональный (многоголосый закадровый), HDrezka Studio]
Аудио#2: Английский: 48 kHz/16 bits, AC3 Dolby Digital, 3/2 (L,C,R,l,r) + LFE ch, ~ 384 kbps avg [Оригинал]






Общее
Уникальный идентификатор : 214618448748362476130084901317754691463 (0xA176027C1BB30C77888B15E0F2031F87)
Полное имя : F:OlLanDGroupSuper.Troopers.2.2018.BDRip(AVC).OlLanDGroup.mkv
Формат : Matroska
Версия формата : Version 4 / Version 2
Размер файла : 2,19 Гбайт
Продолжительность : 1 ч. 39 м.
Общий поток : 3151 Кбит/сек
Название фильма : Super.Troopers.2.2018 #TorpedoUK#
Дата кодирования : UTC 2018-07-15 03:17:50
Программа кодирования : mkvmerge v8.3.0 ('Over the Horizon') 64bit
Библиотека кодирования : libebml v1.3.1 + libmatroska v1.4.2
Обложка : Yes
Attachments : small_cover.jpg / small_cover_land.jpg / cover.jpg / cover_land.jpg

Видео
Идентификатор : 1
Формат : AVC
Формат/Информация : Advanced Video Codec
Профиль формата :
Параметр CABAC формата : Да
Параметр ReFrames формата : 10 кадров
Идентификатор кодека : V_MPEG4/ISO/AVC
Продолжительность : 1 ч. 39 м.
Битрейт : 2508 Кбит/сек
Ширина : 1024 пикселя
Высота : 554 пикселя
Соотношение сторон : 1,85:1
Режим частоты кадров : Постоянный
Частота кадров : 23,976 (24000/1001) кадра/сек
Цветовое пространство : YUV
Субдискретизация насыщенности : 4:2:0
Битовая глубина : 8 бит
Тип развёртки : Прогрессивная
Бит/(Пиксели*Кадры) : 0.184
Размер потока : 1,74 Гбайт (80%)
Библиотека кодирования : x264 core 146 r2538 121396c
Настройки программы : cabac=1 / ref=10 / deblock=1:-3:-3 / analyse=0x3:0x113 / me=umh / subme=11 / psy=1 / psy_rd=0.99:0.05 / mixed_ref=1 / me_range=48 / chroma_me=1 / trellis=2 / 8x8dct=1 / cqm=0 / deadzone=21,11 / fast_pskip=1 / chroma_qp_offset=-3 / threads=6 / lookahead_threads=1 / sliced_threads=0 / nr=0 / decimate=1 / interlaced=0 / bluray_compat=0 / constrained_intra=0 / bframes=10 / b_pyramid=2 / b_adapt=2 / b_bias=0 / direct=3 / weightb=1 / open_gop=0 / weightp=2 / keyint=240 / keyint_min=23 / scenecut=40 / intra_refresh=0 / rc_lookahead=40 / rc=2pass / mbtree=1 / bitrate=2508 / ratetol=1.0 / qcomp=0.60 / qpmin=0 / qpmax=69 / qpstep=4 / cplxblur=20.0 / qblur=0.5 / vbv_maxrate=50000 / vbv_bufsize=62500 / nal_hrd=none / filler=0 / ip_ratio=1.40 / aq=1:1.00
Язык : English
Default : Да
Forced : Нет

Аудио #1
Идентификатор : 2
Формат : AC-3
Формат/Информация : Audio Coding 3
Расширение режима : CM (complete main)
Параметр Endianness формата : Big
Идентификатор кодека : A_AC3
Продолжительность : 1 ч. 39 м.
Вид битрейта : Постоянный
Битрейт : 192 Кбит/сек
Каналы : 2 канала
Расположение каналов : Front: L R
Частота : 48,0 КГц
Частота кадров : 31,250 кадров/сек (1536 spf)
Битовая глубина : 16 бит
Метод сжатия : С потерями
Размер потока : 137 Мбайт (6%)
Заголовок : MVO [HDRezka Studio]
Язык : Russian
Default : Да
Forced : Нет

Аудио #2
Идентификатор : 3
Формат : AC-3
Формат/Информация : Audio Coding 3
Расширение режима : CM (complete main)
Параметр Endianness формата : Big
Идентификатор кодека : A_AC3
Продолжительность : 1 ч. 39 м.
Вид битрейта : Постоянный
Битрейт : 448 Кбит/сек
Каналы : 6 каналов
Расположение каналов : Front: L C R, Side: L R, LFE
Частота : 48,0 КГц
Частота кадров : 31,250 кадров/сек (1536 spf)
Битовая глубина : 16 бит
Метод сжатия : С потерями
Размер потока : 319 Мбайт (14%)
Заголовок : Original
Язык : English
Default : Нет
Forced : Нет

Текст #1
Идентификатор : 4
Формат : UTF-8
Идентификатор кодека : S_TEXT/UTF8
Идентификатор кодека/Информация : UTF-8 Plain Text
Продолжительность : 1 ч. 39 м.
Битрейт : 87 бит/сек
Count of elements : 2110
Размер потока : 64,0 Кбайт (0%)
Заголовок : Full
Язык : English
Default : Нет
Forced : Нет

Текст #2
Идентификатор : 5
Формат : UTF-8
Идентификатор кодека : S_TEXT/UTF8
Идентификатор кодека/Информация : UTF-8 Plain Text
Продолжительность : 1 ч. 39 м.
Битрейт : 108 бит/сек
Count of elements : 2544
Размер потока : 79,2 Кбайт (0%)
Заголовок : SDH
Язык : English
Default : Нет
Forced : Нет

Меню
00:00:00.000 : en:Chapter 01
00:05:15.398 : en:Chapter 02
00:09:08.756 : en:Chapter 03
00:12:43.012 : en:Chapter 04
00:16:12.972 : en:Chapter 05
00:22:11.955 : en:Chapter 06
00:26:35.552 : en:Chapter 07
00:29:48.620 : en:Chapter 08
00:33:19.956 : en:Chapter 09
00:36:33.608 : en:Chapter 10
00:40:04.527 : en:Chapter 11
00:43:10.879 : en:Chapter 12
00:46:35.209 : en:Chapter 13
00:51:43.141 : en:Chapter 14
00:55:46.801 : en:Chapter 15
01:01:09.207 : en:Chapter 16
01:04:57.018 : en:Chapter 17
01:07:07.064 : en:Chapter 18
01:11:33.247 : en:Chapter 19
01:14:53.530 : en:Chapter 20
01:17:32.522 : en:Chapter 21
01:22:55.136 : en:Chapter 22
01:26:08.621 : en:Chapter 23
01:28:43.901 : en:Chapter 24





   Похожие торренты   Торрент   Размер 
В этой теме нет новых непрочитанных сообщений. Суперполицейские 2 / Super Troopers 2 (Джей Чандрашекхар ) [2018, комедия, криминал, детектив, BDRip] MVO

221 | 11

1.46 ГБ

В этой теме нет новых непрочитанных сообщений. Суперполицейские 2 / Super Troopers 2 (Джей Чандрашекхар ) [2018, комедия, криминал, детектив, BDRip] MVO

62 | 10

1.42 ГБ

В этой теме нет новых непрочитанных сообщений. Суперполицейские 2 / Super Troopers 2 (Джей Чандрашекхар) [2018, детектив, криминал, комедия, WEBDLRip] MVO

125 | 12

1.46 ГБ

В этой теме нет новых непрочитанных сообщений. Суперполицейские / Super Troopers (2001) BDRip от Rulya74

177 | 19

2.07 ГБ

В этой теме нет новых непрочитанных сообщений. Суперполицейские / Super Troopers (2001) BDRip-AVC | iPad | P

54 | 9

2.21 ГБ

В этой теме нет новых непрочитанных сообщений. Супер 8 / Super 8 (Джей Джей Абрамс) [2011, фантастика, триллер, детектив, BDRip-AVC] DUB / Фильмы HDRip

15 | 4

2.91 ГБ

В этой теме нет новых непрочитанных сообщений. Суперполицейские / Super Troopers (2001) Blu-ray

14 | 31

33.71 ГБ




Вы не можете начинать темы
Вы не можете отвечать на сообщения
Вы не можете редактировать свои сообщения
Вы не можете удалять свои сообщения
Вы не можете добавлять вложения

Перейти:  
 Вход
ppkBB3cker v.2 © 2008-2014 @ PPK
[ Time : 0.036s | 15 Queries | GZIP : Off ]

cron