img image001 image001 image001 image001 image001 image001 image001 image001 image001 image001 image001 image001 image001 image001 image001 image001

Planets Sun Sun Sun
Статистика раздачи
Автор: Снежана | Размер: 1.46 ГБ | Добавлен: 16 июл 2018
Раздают: 145    Качают: 2
Скачать торрент
Скачать торрент
Описание торрента

СообщениеДобавлено: 16 июл 2018 

Большая легенда / Big Legend


Перевод: Профессиональный (многоголосый закадровый) HDRezka Studio
Cубтитры: Английские (SDH)
Формат: WEB-DLRip-AVC, MKV, H.264, AC3
Страна: США
Режиссер: Джастин Ли
Жанр: боевик, триллер
Продолжительность: 01:29:07
Год выпуска: 2018
В ролях: Кевин Макли, Тодд Робинсон, Аманда Уайсс, Эшли Платц, Эдриенн Барбо, Лэнс Хенриксен

Описание: Тайлер отправляется в тихоокеанские северо-западные густые леса после того, как его невеста неожиданно пропала, отправившись туда на экспедицию. Там он встречает охотника, который решает помочь парню. Идя по стопам учёных, на которых они вышли, герои никак не ожидают, что легенды о Бигфуте окажутся правдивыми.



Видео: 1024x428 (2.40:1), 23,976 fps, AVC MPEG-4 (x264), ~ 1 700 kbps avg, 0.162 bit/pixel

Аудио#1: Русский: 48 kHz/16 bits, AC3 Dolby Digital, 2/0 (L,R) ch, ~192 kbps avg [Профессиональный (многоголосый закадровый), HDRezka Studio]
Аудио#2: Английский: 48 kHz/16 bits, AC3 Dolby Digital, 3/2 (L,C,R,l,r) + LFE ch, ~ 448 kbps avg [Оригинал]






Общее
Уникальный идентификатор : 194972180767581169521610016283895552690 (0x92AE46B0362F6EF09EA18C6A23F05AB2)
Полное имя : F:OlLanDGroupBig.Legend.2018.WEB-DLRip(AVC).OlLanDGroup.mkv
Формат : Matroska
Версия формата : Version 4 / Version 2
Размер файла : 1,46 Гбайт
Продолжительность : 1 ч. 29 м.
Общий поток : 2341 Кбит/сек
Название фильма : Big.Legend.2018 #TorpedoUK#
Дата кодирования : UTC 2018-07-15 10:29:42
Программа кодирования : mkvmerge v8.3.0 ('Over the Horizon') 64bit
Библиотека кодирования : libebml v1.3.1 + libmatroska v1.4.2

Видео
Идентификатор : 1
Формат : AVC
Формат/Информация : Advanced Video Codec
Профиль формата :
Параметр CABAC формата : Да
Параметр ReFrames формата : 10 кадров
Идентификатор кодека : V_MPEG4/ISO/AVC
Продолжительность : 1 ч. 29 м.
Битрейт : 1700 Кбит/сек
Ширина : 1024 пикселя
Высота : 428 пикселей
Соотношение сторон : 2,40:1
Режим частоты кадров : Постоянный
Частота кадров : 23,976 (24000/1001) кадра/сек
Цветовое пространство : YUV
Субдискретизация насыщенности : 4:2:0
Битовая глубина : 8 бит
Тип развёртки : Прогрессивная
Бит/(Пиксели*Кадры) : 0.162
Размер потока : 1,06 Гбайт (73%)
Библиотека кодирования : x264 core 146 r2538 121396c
Настройки программы : cabac=1 / ref=10 / deblock=1:-3:-3 / analyse=0x3:0x113 / me=umh / subme=11 / psy=1 / psy_rd=0.99:0.05 / mixed_ref=1 / me_range=48 / chroma_me=1 / trellis=2 / 8x8dct=1 / cqm=0 / deadzone=21,11 / fast_pskip=1 / chroma_qp_offset=-3 / threads=6 / lookahead_threads=1 / sliced_threads=0 / nr=0 / decimate=1 / interlaced=0 / bluray_compat=0 / constrained_intra=0 / bframes=10 / b_pyramid=2 / b_adapt=2 / b_bias=0 / direct=3 / weightb=1 / open_gop=0 / weightp=2 / keyint=240 / keyint_min=23 / scenecut=40 / intra_refresh=0 / rc_lookahead=40 / rc=2pass / mbtree=1 / bitrate=1700 / ratetol=1.0 / qcomp=0.60 / qpmin=0 / qpmax=69 / qpstep=4 / cplxblur=20.0 / qblur=0.5 / vbv_maxrate=50000 / vbv_bufsize=62500 / nal_hrd=none / filler=0 / ip_ratio=1.40 / aq=1:1.00
Default : Да
Forced : Нет

Аудио #1
Идентификатор : 2
Формат : AC-3
Формат/Информация : Audio Coding 3
Расширение режима : CM (complete main)
Параметр Endianness формата : Big
Идентификатор кодека : A_AC3
Продолжительность : 1 ч. 29 м.
Вид битрейта : Постоянный
Битрейт : 192 Кбит/сек
Каналы : 2 канала
Расположение каналов : Front: L R
Частота : 48,0 КГц
Частота кадров : 31,250 кадров/сек (1536 spf)
Битовая глубина : 16 бит
Метод сжатия : С потерями
Размер потока : 123 Мбайт (8%)
Заголовок : MVO [HDRezka Studio]
Язык : Russian
Default : Да
Forced : Нет

Аудио #2
Идентификатор : 3
Формат : AC-3
Формат/Информация : Audio Coding 3
Расширение режима : CM (complete main)
Параметр Endianness формата : Big
Идентификатор кодека : A_AC3
Продолжительность : 1 ч. 29 м.
Вид битрейта : Постоянный
Битрейт : 448 Кбит/сек
Каналы : 6 каналов
Расположение каналов : Front: L C R, Side: L R, LFE
Частота : 48,0 КГц
Частота кадров : 31,250 кадров/сек (1536 spf)
Битовая глубина : 16 бит
Метод сжатия : С потерями
Размер потока : 286 Мбайт (19%)
Заголовок : Original
Язык : English
Default : Нет
Forced : Нет

Текст
Идентификатор : 4
Формат : UTF-8
Идентификатор кодека : S_TEXT/UTF8
Идентификатор кодека/Информация : UTF-8 Plain Text
Продолжительность : 1 ч. 27 м.
Битрейт : 27 бит/сек
Count of elements : 676
Размер потока : 17,3 Кбайт (0%)
Заголовок : SDH
Язык : English
Default : Нет
Forced : Нет





   Похожие торренты   Торрент   Размер 
В этой теме нет новых непрочитанных сообщений. Большая легенда / Big Legend (Джастин Ли) [2018, боевик, триллер, WEBDLRip] MVO

27 | 0

1.32 ГБ

В этой теме нет новых непрочитанных сообщений. Большая легенда / Big Legend (Джастин Ли) [2018, боевик, триллер, WEBRip] АVO

36 | 2

1.07 ГБ

В этой теме нет новых непрочитанных сообщений. Коллайдер / Collider (Джастин Льюис) [2018, фантастика, боевик, WEBDLRip] MVO

107 | 10

1.37 ГБ

В этой теме нет новых непрочитанных сообщений. Спецназ, 1 сезон 1-21 серия из 22 / S.W.A.T [Jaskier] (Билл Джирхарт, Эгил Эгилссон, Джастин Лин) [2017, боевик, триллер, драма, криминал, приключения, WEBRip, P]

3 | 0

11.17 ГБ

В этой теме нет новых непрочитанных сообщений. Ловкость / Sleight (Джастин Диллард) [2017, фантастика, боевик, триллер, драма, HDRip] MVO / Фантастика

12 | 5

1.36 ГБ

В этой теме нет новых непрочитанных сообщений. Ограбление в ураган / The Hurricane Heist (Роб Коэн) [2018, боевик, триллер, WEB-DLRip] DUB

349 | 6

1.46 ГБ

В этой теме нет новых непрочитанных сообщений. Бхагмати / Bhaagamathie (Ашок Дж.) [2018, ужасы, боевик, триллер, история, WEB-DLRip] DVO

4 | 0

1.37 ГБ




Вы не можете начинать темы
Вы не можете отвечать на сообщения
Вы не можете редактировать свои сообщения
Вы не можете удалять свои сообщения
Вы не можете добавлять вложения

Перейти:  
 Вход
ppkBB3cker v.2 © 2008-2014 @ PPK
[ Time : 0.053s | 16 Queries | GZIP : Off ]

cron