img image001 image001 image001 image001 image001 image001 image001 image001 image001 image001 image001 image001 image001 image001 image001 image001

Planets Sun Sun Sun
Статистика раздачи
Автор: Снежана | Размер: 1.46 ГБ | Добавлен: 17 июл 2018
Раздают: 35    Качают: 2
Скачать торрент
Скачать торрент
Описание торрента

СообщениеДобавлено: 17 июл 2018 

Время / In Time


Перевод: Профессиональный (полное дублирование) Лицензия Blu-ray CEE
Cубтитры: Pусские (форс.), русские (х3)
Формат: BDRip-AVC, MKV, H.264, AC3
Страна: США
Режиссер: Эндрю Никкол
Жанр: фантастика, триллер, драма, мелодрама, криминал
Продолжительность: 01:49:16
Год выпуска: 2011

В ролях: Джастин Тимберлейк, Аманда Сайфред, Киллиан Мёрфи, Алекс Петтифер, Винсент Картайзер, Оливия Уайлд, Мэтт Бомер, Джонни Галэки, Коллинс Пенни, Итан Пек, Йайа ДаКоста, Шайло Уствальд

Описание: Добро пожаловать в мир, где время стало единственной и самой твердой валютой, где люди генетически запрограммированы так, что в 25 лет перестают стареть. Правда, последующие годы стоят денег. И вот богатые становятся практически бессмертными, а бедные, как всегда, обречены сражаться за жизнь.



Видео: 1016x432 (2.35:1), 23.976 fps, AVC MPEG-4 (x264), High@L4,1 ~ 1 464 Кбит/сек, 0.139 bit/pixel
Аудио: 48 kHz, AC3 Dolby Digital, 3/2 (L,C,R,l,r) + LFE ch, ~ 448 kbps avg







Общее
Уникальный идентификатор : 252081548769211343522001510873895679646 (0xBDA523EC0688289FA02186BDF322369E)
Полное имя : E:\Закачка-2\Vremya.2011.RUS.BDRip.x264.-HELLYWOOD.mkv
Формат : Matroska
Версия формата : Version 4 / Version 2
Размер файла : 1,46 Гбайт
Продолжительность : 1 ч. 49 м.
Общий поток : 1914 Кбит/сек
Название фильма : In Time (2011)
Дата кодирования : UTC 2018-07-16 17:19:10
Программа кодирования : mkvmerge v5.9.0 ('On The Loose') built on Dec 15 2012 16:39:58
Библиотека кодирования : libebml v1.3.0 + libmatroska v1.4.0

Видео
Идентификатор : 1
Формат : AVC
Формат/Информация : Advanced Video Codec
Профиль формата :
Параметр CABAC формата : Да
Параметр ReFrames формата : 12 кадров
Идентификатор кодека : V_MPEG4/ISO/AVC
Продолжительность : 1 ч. 49 м.
Битрейт : 1464 Кбит/сек
Ширина : 1016 пикселей
Высота : 432 пикселя
Соотношение сторон : 2,35:1
Режим частоты кадров : Постоянный
Частота кадров : 23,976 (24000/1001) кадра/сек
Цветовое пространство : YUV
Субдискретизация насыщенности : 4:2:0
Битовая глубина : 8 бит
Тип развёртки : Прогрессивная
Бит/(Пиксели*Кадры) : 0.139
Размер потока : 1,09 Гбайт (75%)
Заголовок : potroks
Библиотека кодирования : x264 core 155 r2901M 7d0ff22
Настройки программы : cabac=1 / ref=12 / deblock=1:-1:-1 / analyse=0x3:0x133 / me=umh / subme=11 / psy=1 / psy_rd=1.00:0.05 / mixed_ref=1 / me_range=48 / chroma_me=1 / trellis=2 / 8x8dct=1 / cqm=0 / deadzone=21,11 / fast_pskip=0 / chroma_qp_offset=-3 / threads=9 / lookahead_threads=2 / sliced_threads=0 / nr=0 / decimate=0 / interlaced=0 / bluray_compat=0 / constrained_intra=0 / bframes=11 / b_pyramid=2 / b_adapt=2 / b_bias=0 / direct=3 / weightb=1 / open_gop=0 / weightp=2 / keyint=240 / keyint_min=23 / scenecut=40 / intra_refresh=0 / rc_lookahead=130 / rc=2pass / mbtree=0 / bitrate=1464 / ratetol=1.0 / qcomp=0.70 / qpmin=0 / qpmax=69 / qpstep=4 / cplxblur=20.0 / qblur=0.5 / vbv_maxrate=50000 / vbv_bufsize=50000 / nal_hrd=none / filler=0 / ip_ratio=1.40 / pb_ratio=1.30 / aq=1:0.80
Язык : English
Default : Да
Forced : Нет

Аудио
Идентификатор : 2
Формат : AC-3
Формат/Информация : Audio Coding 3
Расширение режима : CM (complete main)
Параметр Endianness формата : Big
Идентификатор кодека : A_AC3
Продолжительность : 1 ч. 49 м.
Вид битрейта : Постоянный
Битрейт : 448 Кбит/сек
Каналы : 6 каналов
Расположение каналов : Front: L C R, Side: L R, LFE
Частота : 48,0 КГц
Частота кадров : 31,250 кадров/сек (1536 spf)
Метод сжатия : С потерями
Размер потока : 350 Мбайт (23%)
Заголовок : Dub | DD 5.1 @ 448 kbps - Blu-ray CEE
Язык : Russian
Default : Да
Forced : Нет

Текст #1
Идентификатор : 3
Формат : UTF-8
Идентификатор кодека : S_TEXT/UTF8
Идентификатор кодека/Информация : UTF-8 Plain Text
Заголовок : Forced
Язык : Russian
Default : Да
Forced : Нет

Текст #2
Идентификатор : 4
Формат : UTF-8
Идентификатор кодека : S_TEXT/UTF8
Идентификатор кодека/Информация : UTF-8 Plain Text
Заголовок : Blu-ray CEE
Язык : Russian
Default : Нет
Forced : Нет

Текст #3
Идентификатор : 5
Формат : UTF-8
Идентификатор кодека : S_TEXT/UTF8
Идентификатор кодека/Информация : UTF-8 Plain Text
Заголовок : iTunes
Язык : Russian
Default : Нет
Forced : Нет

Текст #4
Идентификатор : 6
Формат : UTF-8
Идентификатор кодека : S_TEXT/UTF8
Идентификатор кодека/Информация : UTF-8 Plain Text
Заголовок : Notabenoid
Язык : Russian
Default : Нет
Forced : Нет





   Похожие торренты   Торрент   Размер 
В этой теме нет новых непрочитанных сообщений. Гаттака / Gattaca (Эндрю Никкол) [Open Matte] [1997, фантастика, мелодрама, драма, детектив, WEB-DLRip-AVC] DUB / Фантастика

17 | 1

1.41 ГБ

В этой теме нет новых непрочитанных сообщений. Провал во времени / Скачок во времени / Retroactive (Луи Морно) [1997, фантастика, боевик, триллер, драма, криминал, BDRip-AVC] MVO+DVO / Фантастика

4 | 2

746.02 МБ

В этой теме нет новых непрочитанных сообщений. Безбожная юность / Jugend ohne Gott (Ален Гспонер) [2017, фантастика, триллер, драма, криминал, HDRip] MVO / Фантастика

6 | 0

1.42 ГБ

В этой теме нет новых непрочитанных сообщений. Играющие с разумом / MindGamers (Эндрю Гот) [2015, фантастика, боевик, триллер, WEBDLRip] MVO / Фантастика

10 | 6

1.37 ГБ

В этой теме нет новых непрочитанных сообщений. Орбита 9 / Orbita 9 (Хатем Храиче) [2017, фантастика, драма, мелодрама, BDRip-AVC] DUB / Фантастика

14 | 0

1.46 ГБ

В этой теме нет новых непрочитанных сообщений. Судья Дредд / Judge Dredd (Дэнни Кэннон) [1995, фантастика, боевик, триллер, криминал, BDRip] DVO / Фантастика

2 | 0

1.46 ГБ

В этой теме нет новых непрочитанных сообщений. Знаки / Signs (М. Найт Шьямалан) [2002, фантастика, триллер, драма, BDRip] DUB / Фантастика

7 | 0

1.46 ГБ




Вы не можете начинать темы
Вы не можете отвечать на сообщения
Вы не можете редактировать свои сообщения
Вы не можете удалять свои сообщения
Вы не можете добавлять вложения

Перейти:  
 Вход
ppkBB3cker v.2 © 2008-2014 @ PPK
[ Time : 0.050s | 17 Queries | GZIP : Off ]

cron