img image001 image001 image001 image001 image001 image001 image001 image001 image001 image001 image001 image001 image001 image001 image001 image001

Planets Sun Sun Sun
Статистика раздачи
Автор: Снежана | Размер: 2.91 ГБ | Добавлен: 18 июл 2018
Раздают: 17    Качают: 2
Скачать торрент
Скачать торрент
Описание торрента

СообщениеДобавлено: 18 июл 2018 

Супер 8 / Super 8
Оценка релиза: 
Перевод: Профессиональный (полное дублирование)
Субтитры: Русские, английские
Формат: BDRip, MKV, H.264, AC3
Страна: США
Режиссер: Джей Джей Абрамс
Жанр: фантастика, триллер, детектив
Продолжительность: 01:51:48
Год выпуска: 2011

В ролях: Джоэл Кортни, Эль Фаннинг, Джессика Так, Джоэль МакКиннон Миллер, Райан Ли, Зак Миллс, Райли Гриффитс, Гэбриел Бассо, Кайл Чандлер, Рон Элдард

Описание: Летом 1979 года несколько друзей из маленького городка в Огайо, снимающие любительский фильм на камеру «Супер 8», стали свидетелями железнодорожной катастрофы. И вскоре они начинают подозревать, что это не было просто несчастным случаем. Странные исчезновения и необъяснимые события начинают происходить в городке, и местный шериф пытается разгадать их тайну — что-то куда более ужасающее, чем все могли себе представить.



Видео: 1056x440 (2.40:1), 23.976 fps, AVC MPEG-4 (H.264), ~2835 kbps, 0.254 bit/pixel
Аудио #1: Русский: 48 kHz, AC3 Dolby Digital, 6 ch, ~448 kbps [Профессиональный (полное дублирование)]
Аудио #2: Английский: 48 kHz, AC3 Dolby Digital, 6 ch, ~448 kbps [Оригинал]

Format : Matroska
Format version : Version 2
File size : 2.91 GiB
Duration : 1h 51mn
Overall bit rate : 3 729 Kbps
Movie name : Super 8 2011
Encoded date : UTC 2012-07-18 01:22:50
Writing application : mkvmerge v5.7.0 ('The Whirlwind') built on Jul 8 2012 20:08:51
Writing library : libebml v1.2.3 + libmatroska v1.3.0
Attachment : Yes
Video
ID : 1
Format : AVC
Format/Info : Advanced Video Codec
Format profile :
Format settings, CABAC : Yes
Format settings, ReFrames : 11 frames
Codec ID : V_MPEG4/ISO/AVC
Duration : 1h 51mn
Bit rate : 2 835 Kbps
Width : 1 056 pixels
Height : 440 pixels
Display aspect ratio : 2.40:1
Frame rate : 23.976 fps
Color space : YUV
Chroma subsampling : 4:2:0
Bit depth : 8 bits
Scan type : Progressive
Bits/(Pixel*Frame) : 0.254
Stream size : 2.15 GiB (74%)
Title : Super 8
Writing library : x264 core 125 r2200kMod 999b753
Encoding settings : cabac=1 / ref=11 / deblock=1:-2:-1 / analyse=0x3:0x133 / me=umh / subme=11 / psy=1 / fade_compensate=0.00 / psy_rd=1.05:0.05 / mixed_ref=1 / me_range=48 / chroma_me=1 / trellis=2 / 8x8dct=1 / cqm=0 / deadzone=21,11 / fast_pskip=0 / chroma_qp_offset=-3 / threads=6 / lookahead_threads=1 / sliced_threads=0 / nr=0 / decimate=0 / interlaced=0 / bluray_compat=0 / constrained_intra=0 / bframes=16 / b_pyramid=2 / b_adapt=2 / b_bias=0 / direct=3 / weightb=1 / open_gop=0 / weightp=2 / keyint=240 / keyint_min=23 / scenecut=40 / intra_refresh=0 / rc_lookahead=60 / rc=2pass / mbtree=0 / bitrate=2835 / ratetol=1.0 / qcomp=0.75 / qpmin=0 / qpmax=69 / qpstep=4 / cplxblur=20.0 / qblur=0.5 / vbv_maxrate=25000 / vbv_bufsize=31250 / nal_hrd=none / ip_ratio=1.25 / pb_ratio=1.20 / aq=3:0.80
Language : English
Default : Yes
Forced : No
Matrix coefficients : BT.709-5, BT.1361, IEC 61966-2-4 709, SMPTE RP177
Audio #1
ID : 2
Format : AC-3
Format/Info : Audio Coding 3
Mode extension : CM (complete main)
Format settings, Endianness : Big
Codec ID : A_AC3
Duration : 1h 51mn
Bit rate mode : Constant
Bit rate : 448 Kbps
Channel(s) : 6 channels
Channel positions : Front: L C R, Side: L R, LFE
Sampling rate : 48.0 KHz
Bit depth : 16 bits
Compression mode : Lossy
Stream size : 358 MiB (12%)
Title : Дубляж
Language : Russian
Default : Yes
Forced : No
Audio #2
ID : 3
Format : AC-3
Format/Info : Audio Coding 3
Mode extension : CM (complete main)
Format settings, Endianness : Big
Codec ID : A_AC3
Duration : 1h 51mn
Bit rate mode : Constant
Bit rate : 448 Kbps
Channel(s) : 6 channels
Channel positions : Front: L C R, Side: L R, LFE
Sampling rate : 48.0 KHz
Bit depth : 16 bits
Compression mode : Lossy
Stream size : 358 MiB (12%)
Title : Английский
Language : English
Default : No
Forced : No
Text #1
ID : 4
Format : UTF-8
Codec ID : S_TEXT/UTF8
Codec ID/Info : UTF-8 Plain Text
Title : Русские (forced)
Language : Russian
Default : No
Forced : No
Text #2
ID : 5
Format : UTF-8
Codec ID : S_TEXT/UTF8
Codec ID/Info : UTF-8 Plain Text
Title : Русские - Voronine
Language : Russian
Default : No
Forced : No
Text #3
ID : 6
Format : UTF-8
Codec ID : S_TEXT/UTF8
Codec ID/Info : UTF-8 Plain Text
Title : Украинские (forced)
Language : Ukrainian
Default : No
Forced : No
Text #4
ID : 7
Format : UTF-8
Codec ID : S_TEXT/UTF8
Codec ID/Info : UTF-8 Plain Text
Title : Английские
Language : English
Default : No
Forced : No
Menu
00:00:00.000 : en:Chapter.01
00:07:01.504 : en:Chapter.02
00:11:33.275 : en:Chapter.03
00:19:25.164 : en:Chapter.04
00:26:43.518 : en:Chapter.05
00:33:36.514 : en:Chapter.06
00:40:30.511 : en:Chapter.07
00:45:42.156 : en:Chapter.08
00:51:57.114 : en:Chapter.09
00:56:59.958 : en:Chapter.10
01:02:24.365 : en:Chapter.11
01:08:12.505 : en:Chapter.12
01:13:30.906 : en:Chapter.13
01:18:33.875 : en:Chapter.14
01:25:31.334 : en:Chapter.15
01:30:25.378 : en:Chapter.16
01:38:20.352 : en:Chapter.17
01:43:37.836 : en:Chapter.18












   Похожие торренты   Торрент   Размер 
В этой теме нет новых непрочитанных сообщений. Супер 8 / Super 8 (Джей Джей Абрамс) [2011, фантастика, триллер, детектив, HDRip] AVO

4 | 0

1.45 ГБ

В этой теме нет новых непрочитанных сообщений. Звёздные войны: Пробуждение силы / Star Wars: Episode VII - The Force Awakens (Джей Джей Абрамс) [2015, фантастика, фэнтези, CamRip] DUB

3387 | 288

1.37 ГБ

В этой теме нет новых непрочитанных сообщений. Суперполицейские 2 / Super Troopers 2 (Джей Чандрашекхар ) [2018, комедия, криминал, детектив, BDRip-AVC] MVO

70 | 7

2.19 ГБ

В этой теме нет новых непрочитанных сообщений. Суперполицейские 2 / Super Troopers 2 (Джей Чандрашекхар ) [2018, комедия, криминал, детектив, BDRip] MVO

229 | 13

1.46 ГБ

В этой теме нет новых непрочитанных сообщений. Суперполицейские 2 / Super Troopers 2 (Джей Чандрашекхар ) [2018, комедия, криминал, детектив, BDRip] MVO

51 | 4

1.42 ГБ

В этой теме нет новых непрочитанных сообщений. Секрет / Secret / Bu neng shuo de mi mi (Джей Чоу) [2007, мелодрама, фэнтези, музыкальный, BDRip-AVC] DVO / Фильмы HDRip

2 | 2

2.76 ГБ

В этой теме нет новых непрочитанных сообщений. Суперполицейские 2 / Super Troopers 2 (Джей Чандрашекхар) [2018, детектив, криминал, комедия, WEBDLRip] MVO

117 | 9

1.46 ГБ




Вы не можете начинать темы
Вы не можете отвечать на сообщения
Вы не можете редактировать свои сообщения
Вы не можете удалять свои сообщения
Вы не можете добавлять вложения

Перейти:  
 Вход
ppkBB3cker v.2 © 2008-2014 @ PPK
[ Time : 0.050s | 16 Queries | GZIP : Off ]

cron