img image001 image001 image001 image001 image001 image001 image001 image001 image001 image001 image001 image001 image001 image001 image001 image001

Planets Sun Sun Sun
Статистика раздачи
Автор: Снежана | Размер: 1.46 ГБ | Добавлен: 18 июл 2018
Раздают: 32    Качают: 2
Скачать торрент
Скачать торрент
Описание торрента

СообщениеДобавлено: 18 июл 2018 

Информация о фильме
Название: Моя жизнь
Год выпуска: 2018
Страна: Россия
Жанр: мелодрама

Перевод: Оригинал (русский) [iTunes]
Продолжительность: 01:34:44

Режиссер: Алексей Луканев
В ролях: Алёна Бабенко, Павел Трубинер, Макар Запорожский, Анастасия Панина, Дмитрий Белоцерковский, Николай Чиндяйкин, Арсений Бурдонов, Диана Енакаева, Михаил Калинин, Егор Леонтьев, Кирилл Белобородов, Дмитрий Бедерин


Описание:
С самого детства главный герой влюбляется в футбол и мечтает стать великим футболистом, чтобы сыграть свой важнейший матч. Следуя своей мечте, ему приходится отказаться от любимой девушки и выбрать путь футболиста. И вот, когда остается один шаг до заветной мечты, судьба распоряжается по-другому. Мир перестает существовать, ведь он не только теряет возможность осуществить свою мечту, но и теряет своих родных, любимых людей.

Рейтинг:


Качество: WEB-DLRip
Формат: AVI
Видео: XviD, 720x304 (2.35:1), 1811 kbps, 25 fps, 0,331 bpp
Аудио: AC3 / 5.1 / 48 kHz / 384 kbps /
Сэмпл


Релиз от:


General
Complete name : F:Moya.Zhizn.2018.WEB-DLRip.R.G.Resident.avi
Format : AVI
Format/Info : Audio Video Interleave
File size : 1.46 GiB
Duration : 1 h 34 min
Overall bit rate : 2 205 kb/s
Writing application : VirtualDubModRus 1.5.10.2 (build 2542/release)
Writing library : VirtualDubMod build 2542/release
Video
ID : 0
Format : MPEG-4 Visual
Format profile : Advanced Simple@L5
Format settings, BVOP : 1
Format settings, QPel : No
Format settings, GMC : No warppoints
Format settings, Matrix : Custom
Codec ID : XVID
Codec ID/Hint : XviD
Duration : 1 h 34 min
Bit rate : 1 811 kb/s
Width : 720 pixels
Height : 304 pixels
Display aspect ratio : 2.35:1
Frame rate : 25.000 FPS
Color space : YUV
Chroma subsampling : 4:2:0
Bit depth : 8 bits
Scan type : Progressive
Compression mode : Lossy
Bits/(Pixel*Frame) : 0.331
Stream size : 1.20 GiB (82%)
Writing library : XviD 73
Audio
ID : 1
Format : AC-3
Format/Info : Audio Coding 3
Mode extension : CM (complete main)
Format settings, Endianness : Big
Codec ID : 2000
Duration : 1 h 34 min
Bit rate mode : Constant
Bit rate : 384 kb/s
Channel(s) : 6 channels
Channel positions : Front: L C R, Side: L R, LFE
Sampling rate : 48.0 kHz
Frame rate : 31.250 FPS (1536 spf)
Compression mode : Lossy
Stream size : 260 MiB (17%)
Alignment : Split accross interleaves
Interleave, duration : 40 ms (1.00 video frame)
Interleave, preload duration : 500 ms




   Похожие торренты   Торрент   Размер 
В этой теме нет новых непрочитанных сообщений. Девятая жизнь Луи Дракса / The 9th Life of Louis Drax (2016) WEB-DLRip-AVC от R.G.Resident | iTunes

0 | 0

1.07 ГБ

В этой теме нет новых непрочитанных сообщений. Рэмпейдж / Rampage (2018) WEB-DLRip от R.G.Resident | iTunes

193 | 15

2.05 ГБ

В этой теме нет новых непрочитанных сообщений. Моя жизнь (2018) WEB-DLRip от Generalfilm | КПК | iTunes

37 | 3

360.51 МБ

В этой теме нет новых непрочитанных сообщений. Моя жизнь (2018) WEB-DLRip от GeneralFilm | iTunes

36 | 4

746.5 МБ

В этой теме нет новых непрочитанных сообщений. Моя жизнь (2018) WEB-DLRip-AVC от ivanes20031987 | iTunes

176 | 14

1.45 ГБ

В этой теме нет новых непрочитанных сообщений. Моя жизнь (2018) WEB-DLRip от MegaPeer | iTunes

454 | 19

1.46 ГБ

В этой теме нет новых непрочитанных сообщений. Обитель зла: Вендетта / Resident Evil: Vendetta (2017) WEB-DLRip от R.G.Resident | iTunes

151 | 6

745.96 МБ




Вы не можете начинать темы
Вы не можете отвечать на сообщения
Вы не можете редактировать свои сообщения
Вы не можете удалять свои сообщения
Вы не можете добавлять вложения

Перейти:  
 Вход
ppkBB3cker v.2 © 2008-2014 @ PPK
[ Time : 0.023s | 16 Queries | GZIP : Off ]

cron