img image001 image001 image001 image001 image001 image001 image001 image001 image001 image001 image001 image001 image001 image001 image001 image001

Planets Sun Sun Sun
Статистика раздачи
Автор: Снежана | Размер: 946.16 МБ | Добавлен: 18 июл 2018
Раздают: 21    Качают: 3
Скачать торрент
Скачать торрент
Описание торрента

СообщениеДобавлено: 18 июл 2018 

Не было печали

Жанр: драма
Год выпуска: 1982
Премьера: 21 марта 1983
Продолжительность: 01:06:20
Режиссёр: Юсуп Даниялов
В ролях: Леонид Куравлёв, Татьяна Пельтцер, Катя Хорова, Ольга Остроумова, Елена Соловей, Олег Вавилов, Елизавета Никищихина, Вадим Захарченко, Юрий Назаров
Описание: Сорокалетнего преуспевающего врача, Вадима Петровича, всё ещё опекает мать, мечтающая когда-нибудь подыскать ему идеальную невесту. В их размеренную и устоявшуюся жизнь неожиданно врывается маленькая и очень непосредственная пятилетняя девочка – дочь Вадима, о существовании которой он и не подозревал…

Кодек: х264
Качество: SATRip-AVC
Видео: MPEG-4 AVC, 716x326@764x326 , 25 fps, 1800 Кбит.с
Аудио: AC3, 48 kHz, 2 ch, 192 Кбит.с
x264 [info]: frame I:525 Avg QP:14.78 size: 51689
x264 [info]: frame P:23263 Avg QP:17.72 size: 22430
x264 [info]: frame B:75731 Avg QP:19.15 size: 4579
Общее
Уникальный идентификатор : 186386057689010239232787630351758009427 (0x8C38A62306AB7187949FFD3D3EDA2453)
Полное имя : I:сссрНе было печали 1982_SATRip-AVC_KORSAR.mkv
Формат : Matroska
Версия формата : Version 2
Размер файла : 946 Мбайт
Продолжительность : 1 ч. 6 м.
Общий поток : 1994 Кбит/сек
Дата кодирования : UTC 2018-07-10 09:07:30
Программа кодирования : mkvmerge v5.8.0 ('No Sleep / Pillow') built on Sep 2 2012 15:37:04
Библиотека кодирования : libebml v1.2.3 + libmatroska v1.3.0
Видео
Идентификатор : 1
Формат : AVC
Формат/Информация : Advanced Video Codec
Профиль формата : High@L4.1
Настройки формата : CABAC / 15 Ref Frames
Параметр CABAC формата : Да
Параметр RefFrames формата : 15 кадров
Идентификатор кодека : V_MPEG4/ISO/AVC
Продолжительность : 1 ч. 6 м.
Битрейт : 1800 Кбит/сек
Ширина : 716 пикселей
Высота : 326 пикселей
Соотношение сторон : 2,35:1
Соотношение сторон в оригинале : 2,35:1
Режим частоты кадров : Постоянный
Частота кадров : 25,000 кадров/сек
Цветовое пространство : YUV
Субдискретизация насыщенности : 4:2:0
Битовая глубина : 8 бит
Тип развёртки : Прогрессивная
Бит/(Пиксели*Кадры) : 0.308
Размер потока : 836 Мбайт (88%)
Библиотека кодирования : x264 core 152 r2851kMod ba24899
Настройки программы : cabac=1 / ref=15 / deblock=1:-2:-1 / analyse=0x3:0x133 / me=umh / subme=11 / psy=1 / fade_compensate=0.00 / psy_rd=1.05:0.10 / mixed_ref=1 / me_range=48 / chroma_me=1 / trellis=2 / 8x8dct=1 / cqm=0 / deadzone=21,11 / fast_pskip=0 / chroma_qp_offset=-3 / threads=10 / lookahead_threads=2 / sliced_threads=0 / nr=0 / decimate=0 / interlaced=0 / bluray_compat=0 / constrained_intra=0 / bframes=12 / b_pyramid=2 / b_adapt=2 / b_bias=0 / direct=3 / weightb=1 / open_gop=0 / weightp=2 / keyint=250 / keyint_min=25 / scenecut=40 / intra_refresh=0 / rc_lookahead=40 / rc=2pass / mbtree=0 / bitrate=1800 / ratetol=1.0 / qcomp=0.60 / qpmin=0 / qpmax=39 / qpstep=4 / cplxblur=20.0 / qblur=0.5 / vbv_maxrate=50000 / vbv_bufsize=62500 / nal_hrd=none / filler=0 / ip_ratio=1.25 / pb_ratio=1.30 / aq=1:1.00
Язык : English
Default : Да
Forced : Нет
Цветовой диапазон : Limited
Основные цвета : BT.601 PAL
Характеристики трансфера : BT.470 System B, BT.470 System G
Коэффициенты матрицы : BT.470 System B, BT.470 System G
Аудио
Идентификатор : 2
Формат : AC-3
Формат/Информация : Audio Coding 3
Параметр Endianness формата : Big
Идентификатор кодека : A_AC3
Продолжительность : 1 ч. 6 м.
Вид битрейта : Постоянный
Битрейт : 192 Кбит/сек
Каналы : 2 канала
Расположение каналов : Front: L R
Частота : 48,0 КГц
Частота кадров : 31,250 кадров/сек (1536 SPF)
Битовая глубина : 16 бит
Метод сжатия : С потерями
Задержка видео : 5 мс.
Размер потока : 91,1 Мбайт (10%)
Default : Да
Forced : Нет





   Похожие торренты   Торрент   Размер 
В этой теме нет новых непрочитанных сообщений. Женские радости и печали (1982) SATRip от New-Team

1 | 1

1.09 ГБ

В этой теме нет новых непрочитанных сообщений. Женские радости и печали (1982) SATRip от New-Team

14 | 7

746.15 МБ

В этой теме нет новых непрочитанных сообщений. Женские радости и печали (1982) SATRip-AVC от New-Team

1 | 0

1.09 ГБ

В этой теме нет новых непрочитанных сообщений. Женские радости и печали (1982) SATRip-AVC от New-Team

9 | 1

1.09 ГБ

В этой теме нет новых непрочитанных сообщений. Женские радости и печали (1982) SATRip от New-Team

4 | 8

1.05 ГБ

В этой теме нет новых непрочитанных сообщений. Чародеи (1982) HDTVRip 720p от KORSAR

66 | 8

5.07 ГБ

В этой теме нет новых непрочитанных сообщений. Остров сокровищ (1982) DVDRip-AVC от KORSAR

29 | 3

4.24 ГБ




Вы не можете начинать темы
Вы не можете отвечать на сообщения
Вы не можете редактировать свои сообщения
Вы не можете удалять свои сообщения
Вы не можете добавлять вложения

Перейти:  
 Вход
ppkBB3cker v.2 © 2008-2014 @ PPK
[ Time : 0.035s | 15 Queries | GZIP : Off ]

cron