img image001 image001 image001 image001 image001 image001 image001 image001 image001 image001 image001 image001 image001 image001 image001 image001

Planets Sun Sun Sun
Статистика раздачи
Автор: Снежана | Размер: 1.09 ГБ | Добавлен: 18 июл 2018
Раздают: 12    Качают: 1
Скачать торрент
Скачать торрент
Описание торрента

СообщениеДобавлено: 18 июл 2018 

Страна: СССР
Производство: Свердловская к/ст
Жанр: приключения, семейный
Год выпуска: 1960
Продолжительность: 01:18:47
Перевод: Не требуется
Cубтитры: нет
Оригинальная аудиодорожка: русский
Режиссер: Олег Николаевский
В ролях:
Владимир Махов, Виктор Евдокимов, Борис Емлин, Николай Довженко, Саша Савиных, Николай Красулин, Михаил Иванов, В. Волкова, И. Гусева, Генрих Билль, Олег Николаевский, Николай Бадьев, Константин Максимов, Константин Вологдин...
Об актёрах подробней
Описание:
По мотивам повести П. Бажова «Зеленая кобылка».
Действие фильма происходит в начале XX века. Трое друзей из рабочего уральского поселка — Егорка, Петька и Колюшка — враждовали с ребятами с соседней улицы, верховодил которыми Сенька Кожин, смелый и отчаянный парень. Однажды, возвращаясь с рыбалки, Егорка, Петька и Колюшка нашли в лесу раненого «политика» (так называли в поселке революционеров жандармы). Оказав раненому первую помощь, ребята спрятали его и по его просьбе сообщили о нем слесарю Тулункину с Первой Глинки, отцу Сеньки Кожина. И с этого дня Сенька стал лучшим другом ребят.





Исходник: DVB
Качество видео: SATRip
Формат видео: AVI
Видео: 704x512 (1,375:1), 25,000 кадров/сек, XviD ~ 1776 kbps avg, 0.197 bit/pixel
Аудио: 48 kHz, Dolby Digital AC3 2.0, 192 kbps
Раздача от:
Общее
Полное имя : Tayna.zelenogo.bora.1960.SATRip_[New-team]_by_AVP_Studio.avi
Формат : AVI
Формат/Информация : Audio Video Interleave
Размер файла : 1,09 Гбайт
Продолжительность : 1 ч. 18 м.
Общий поток : 1978 Кбит/сек
Программа кодирования : VirtualDubMod 1.5.10.3 | www.virtualdub-fr.org || (build 2550/release)
Библиотека кодирования : VirtualDubMod build 2550/release
Видео
Идентификатор : 0
Формат : MPEG-4 Visual
Профиль формата : Advanced Simple@L5
Настройки формата : BVOP1 / Custom Matrix
Параметр BVOP формата : 1
Параметр QPel формата : Нет
Параметр GMC формата : Без точки перехода
Параметр матрицы формата : Выборочная
Идентификатор кодека : XVID
Идентификатор кодека/Подсказка : XviD
Продолжительность : 1 ч. 18 м.
Битрейт : 1776 Кбит/сек
Ширина : 704 пикселя
Высота : 512 пикселей
Соотношение сторон : 1,375
Частота кадров : 25,000 кадров/сек
Цветовое пространство : YUV
Субдискретизация насыщенности : 4:2:0
Битовая глубина : 8 бит
Тип развёртки : Прогрессивная
Метод сжатия : С потерями
Бит/(Пиксели*Кадры) : 0.197
Размер потока : 1001 Мбайт (90%)
Библиотека кодирования : XviD 73
Аудио
Идентификатор : 1
Формат : AC-3
Формат/Информация : Audio Coding 3
Идентификатор кодека : 2000
Продолжительность : 1 ч. 18 м.
Вид битрейта : Постоянный
Битрейт : 192 Кбит/сек
Каналы : 2 канала
Расположение каналов : Front: L R
Частота : 48,0 КГц
Частота кадров : 31,250 кадров/сек (1536 SPF)
Битовая глубина : 16 бит
Метод сжатия : С потерями
Размер потока : 108 Мбайт (10%)
Выравнивание : Разделение по промежуткам
Продолжительность промежутка : 40 мс. (1,00 видеокадр)
Время предзагрузки промежутка : 500 мс





   Похожие торренты   Торрент   Размер 
В этой теме нет новых непрочитанных сообщений. Тайна зеленого бора (1960) SATRip-AVC от New-Team

14 | 8

1.09 ГБ

В этой теме нет новых непрочитанных сообщений. Тайны мира с Анной Чапман. Главная тайна зеленого змия [26.09] (2014) SATRip

226 | 11

643.73 МБ

В этой теме нет новых непрочитанных сообщений. Ловец акул с острова Бора-Бора / Beyond the Reef (1981) DVDRip | A

95 | 21

1.16 ГБ

В этой теме нет новых непрочитанных сообщений. Тайна Зеленого Холма / Uzbuna na Zelenom Vrhu (2017) WEBRip 720p | L1

0 | 0

1.67 ГБ

В этой теме нет новых непрочитанных сообщений. Возвращение (1960) SATRip от New-Team

9 | 1

1.09 ГБ

В этой теме нет новых непрочитанных сообщений. Тишина (1960) SATRip-AVC от New-Team

10 | 1

1.09 ГБ

В этой теме нет новых непрочитанных сообщений. Тишина (1960) SATRip от New-Team

21 | 2

1.09 ГБ




Вы не можете начинать темы
Вы не можете отвечать на сообщения
Вы не можете редактировать свои сообщения
Вы не можете удалять свои сообщения
Вы не можете добавлять вложения

Перейти:  
 Вход
ppkBB3cker v.2 © 2008-2014 @ PPK
[ Time : 0.027s | 16 Queries | GZIP : Off ]

cron