img image001 image001 image001 image001 image001 image001 image001 image001 image001 image001 image001 image001 image001 image001 image001 image001

Planets Sun Sun Sun
Статистика раздачи
Автор: Снежана | Размер: 9.53 ГБ | Добавлен: 13 авг 2018
Раздают: 27    Качают: 8
Скачать торрент
Скачать торрент
Описание торрента

СообщениеДобавлено: 13 авг 2018 

Алхимик. Эликсир Фауста (1-12 серии из 12)


Перевод: Не требуется
Cубтитры: отсутствуют
Формат: HDTVRip-AVC, MKV, H.264, AC3
Страна: Россия
Режиссер: Александр Муратов (II)
Жанр: детектив, мистика
Всего серий: 12
Продолжительность: 12 x 00:51:00
Год выпуска: 2015

В ролях: Игорь Петренко, Светлана Иванова, Виктор Раков, Евгения Добровольская, Юлия Рутберг, Павел Баршак, Фёдор Лавров, Владимир Ерёмин, Сергей Степанченко, Игорь Ясулович, Юрий Беляев, Андрей Ильин, Борис Щербаков, Артём Ткаченко, Владимир Коренев, Павел Меленчук, Александр Сирин, Елена Радевич, Татьяна Абрамова, Алексей Шейнин, Вячеслав Жолобов, Артём Фадеев, Владимир Гостюхин, Кирилл Жандаров

Описание: Сериал «Алхимик» - о самых известных и в то же время самых таинственных экспериментаторах всех времен. Используя познания в органической химии, свойствах известных минералов и особую энергетику мистических элементов они из года в год пытались приготовить эликсир бессмертия и научиться превращать в золото любой металл.
Итоги экспериментов, жизни, величайшие открытия, так и оставшиеся секретом для потомков, в этом сериале...




Видео: 1024x576 (16:9), 25.000 fps, AVC MPEG-4 (x264), ~ 2 000 Кбит/сек, 0.136 bit/pixel
Аудио: 48 kHz, AC3 Dolby Digital, 2/0 (L,R) ch, ~ 192 kbps avg






Общее
Уникальный идентификатор : 252590832154782272574116916114335672435 (0xBE07398810FFCCAFA2FA684561B72873)
Полное имя : E:\Закачка-2\Alhimik.(2015).HDTVRip.(AVC).Files-x\01.Alhimik.(2015).HDTVRip.AVC.by.Серый1779.Files-x.mkv
Формат : Matroska
Версия формата : Version 2
Размер файла : 834 Мбайт
Продолжительность : 53 м.
Общий поток : 2194 Кбит/сек
Дата кодирования : UTC 2018-07-23 18:17:09
Программа кодирования : mkvmerge v7.8.0 ('River Man') 32bit built on Apr 3 2015 12:11:22
Библиотека кодирования : libebml v1.3.1 + libmatroska v1.4.2

Видео
Идентификатор : 1
Формат : AVC
Формат/Информация : Advanced Video Codec
Профиль формата :
Параметр CABAC формата : Да
Параметр ReFrames формата : 9 кадров
Идентификатор кодека : V_MPEG4/ISO/AVC
Продолжительность : 53 м.
Битрейт : 2000 Кбит/сек
Ширина : 1024 пикселя
Высота : 576 пикселей
Соотношение сторон : 16:9
Режим частоты кадров : Постоянный
Частота кадров : 25,000 кадров/сек
Цветовое пространство : YUV
Субдискретизация насыщенности : 4:2:0
Битовая глубина : 8 бит
Тип развёртки : Прогрессивная
Бит/(Пиксели*Кадры) : 0.136
Размер потока : 745 Мбайт (89%)
Библиотека кодирования : x264 core 146 r2538 121396c
Настройки программы : cabac=1 / ref=9 / deblock=1:-2:-1 / analyse=0x3:0x133 / me=umh / subme=9 / psy=1 / psy_rd=1.00:0.15 / mixed_ref=1 / me_range=32 / chroma_me=1 / trellis=2 / 8x8dct=1 / cqm=0 / deadzone=21,11 / fast_pskip=0 / chroma_qp_offset=-3 / threads=18 / lookahead_threads=3 / sliced_threads=0 / nr=0 / decimate=1 / interlaced=0 / bluray_compat=0 / constrained_intra=0 / bframes=9 / b_pyramid=2 / b_adapt=2 / b_bias=0 / direct=1 / weightb=1 / open_gop=0 / weightp=2 / keyint=250 / keyint_min=25 / scenecut=40 / intra_refresh=0 / rc=2pass / mbtree=0 / bitrate=2000 / ratetol=1.0 / qcomp=0.60 / qpmin=0 / qpmax=69 / qpstep=4 / cplxblur=20.0 / qblur=0.5 / ip_ratio=1.40 / pb_ratio=1.30 / aq=2:1.00
Default : Да
Forced : Нет
Цветовой диапазон : Limited
Основные цвета : BT.709
Характеристики трансфера : BT.709
Коэффициенты матрицы : BT.709

Аудио
Идентификатор : 2
Формат : AC-3
Формат/Информация : Audio Coding 3
Расширение режима : CM (complete main)
Параметр Endianness формата : Big
Идентификатор кодека : A_AC3
Продолжительность : 53 м.
Вид битрейта : Постоянный
Битрейт : 192 Кбит/сек
Каналы : 2 канала
Расположение каналов : Front: L R
Частота : 48,0 КГц
Частота кадров : 31,250 кадров/сек (1536 spf)
Метод сжатия : С потерями
Размер потока : 73,0 Мбайт (9%)
Default : Да
Forced : Нет





   Похожие торренты   Торрент   Размер 
В этой теме нет новых непрочитанных сообщений. Алхимик. Эликсир Фауста (1-12 серии из 12) (Александр Муратов (II)) [2015, детектив, мистика, HDTVRip]

72 | 10

8.69 ГБ

В этой теме нет новых непрочитанных сообщений. Алхимик. Эликсир Фауста (1-2 серии из 12) (Александр Муратов (II)) [2015, детектив, мистика, HDTVRip-AVC]

9 | 0

1.6 ГБ

В этой теме нет новых непрочитанных сообщений. Алхимик. Эликсир Фауста (1-2 серии из 12) (Александр Муратов (II)) [2015, детектив, мистика, HDTVRip]

26 | 17

1.46 ГБ

В этой теме нет новых непрочитанных сообщений. Алхимик. Эликсир Фауста (1-2 серии из 12) (Александр Муратов (II)) [2015, детектив, мистика, HDTVRip 720p]

7 | 0

2.7 ГБ

В этой теме нет новых непрочитанных сообщений. Алхимик. Эликсир Фауста (1-12 серии из 12) (Александр Муратов (II)) [2015, детектив, мистика, HDTVRip 720p]

0 | 0

16.04 ГБ

В этой теме нет новых непрочитанных сообщений. Алхимик. Эликсир Фауста (1-12 серии из 12) (Александр Муратов (II)) [2015, детектив, мистика, WEB-DL 720p]

23 | 7

14.48 ГБ

В этой теме нет новых непрочитанных сообщений. Алхимик. Эликсир Фауста (1-12 серии из 12) (Александр Муратов (II)) [2015, детектив, мистика, WEB-DLRip]

50 | 8

6.53 ГБ




Вы не можете начинать темы
Вы не можете отвечать на сообщения
Вы не можете редактировать свои сообщения
Вы не можете удалять свои сообщения
Вы не можете добавлять вложения

Перейти:  
 Вход
ppkBB3cker v.2 © 2008-2014 @ PPK
[ Time : 0.027s | 15 Queries | GZIP : Off ]

cron