img image001 image001 image001 image001 image001 image001 image001 image001 image001 image001 image001 image001 image001 image001 image001 image001

Planets Sun Sun Sun
Статистика раздачи
Автор: Снежана | Размер: 1.5 ГБ | Добавлен: 13 авг 2018
Раздают: 1    Качают: 3
Скачать торрент
Скачать торрент
Описание торрента

СообщениеДобавлено: 13 авг 2018 

Забастовка / Jób lázadása / The Revolt of Job


Перевод: Любительский (одноголосый) - den904
Субтитры: русские (Тарас Котов), английские внешние
Формат: DVDRip, AVI, XviD, AC3
Страна: Венгрия
Режиссер: Имре Дьёндьёшши, Барна Кабаи
Жанр: драма
Продолжительность: 01:36:01
Год выпуска: 1983

В ролях: Хеди Темешши, Ференц Зенте, Габор Фехер, Хенри Грегор, Иштван Веребеш, Летиция Кано, Нора Гёрбе, Петер Рудольф, Ласло Гальффи, Ференц Бенце

Описание: Венгрия времён нацистского вторжения. Маленький католический мальчик Лацко усыновлён еврейской семьёй, не имеющей наследника. Он живет полной жизнью - ловит лягушек, проказничает, играет с деревенскими детьми. Но скоро его сказке должен прийти конец...


Видео: 720x544 (4:3), 25 fps, XviD ~1837 kbps avg, 0.188 bit/pixel
Аудио #1: Русский: 48 kHz, AC3 Dolby Digital, 2/0 (L,R) ch, ~192 kbps avg [Любительский одноголосый]
Аудио #2: Венгерский: 48 kHz, AC3 Dolby Digital, 2/0 (L,R) ch, ~192 kbps avg [Оригинал]

Общее
Полное имя : Job.Lazadasa.1983.DVDRip.avi
Формат : AVI
Формат/Информация : Audio Video Interleave
Размер файла : 1,50 Гбайт
Продолжительность : 1 ч. 36 м.
Общий поток : 2236 Кбит/сек
Программа кодирования : VirtualDubMod 1.5.10.2 (build 2542/release)
Библиотека кодирования : VirtualDubMod build 2542/release

Видео
Идентификатор : 0
Формат : MPEG-4 Visual
Профиль формата : Advanced Simple@L5
Параметр BVOP формата : 2
Параметр QPel формата : Нет
Параметр GMC формата : Без точки перехода
Параметр матрицы формата : Default (MPEG)
Идентификатор кодека : XVID
Идентификатор кодека/Подсказка : XviD
Продолжительность : 1 ч. 36 м.
Битрейт : 1837 Кбит/сек
Ширина : 720 пикселей
Высота : 544 пикселя
Соотношение сторон : 4:3
Частота кадров : 25,000 кадров/сек
Цветовое пространство : YUV
Субдискретизация насыщенности : 4:2:0
Битовая глубина : 8 бит
Тип развёртки : Прогрессивная
Метод сжатия : С потерями
Бит/(Пиксели*Кадры) : 0.188
Размер потока : 1,23 Гбайт (82%)
Библиотека кодирования : XviD 1.2.1 (UTC 2008-12-04)

Аудио #1
Идентификатор : 1
Формат : AC-3
Формат/Информация : Audio Coding 3
Расширение режима : CM (complete main)
Параметр Endianness формата : Big
Идентификатор кодека : 2000
Продолжительность : 1 ч. 36 м.
Вид битрейта : Постоянный
Битрейт : 192 Кбит/сек
Каналы : 2 канала
Расположение каналов : Front: L R
Частота : 48,0 КГц
Метод сжатия : С потерями
Размер потока : 132 Мбайт (9%)
Выравнивание : Разделение по промежуткам
Продолжительность промежутка : 40 мс. (1,00 видеокадр)
Время предзагрузки промежутка : 500 мс.

Аудио #2
Идентификатор : 2
Формат : AC-3
Формат/Информация : Audio Coding 3
Расширение режима : CM (complete main)
Параметр Endianness формата : Big
Идентификатор кодека : 2000
Продолжительность : 1 ч. 36 м.
Вид битрейта : Постоянный
Битрейт : 192 Кбит/сек
Каналы : 2 канала
Расположение каналов : Front: L R
Частота : 48,0 КГц
Метод сжатия : С потерями
Размер потока : 132 Мбайт (9%)
Выравнивание : Разделение по промежуткам
Продолжительность промежутка : 40 мс. (1,00 видеокадр)
Время предзагрузки промежутка : 500 мс.








   Похожие торренты   Торрент   Размер 
В этой теме нет новых непрочитанных сообщений. Человек цветов / Man of Flowers (Пол Кокс) [1983, драма, DVDRip-AVC] VO / Драмы

8 | 0

1.55 ГБ

В этой теме нет новых непрочитанных сообщений. Княжна Дэйзи / Princess Daisy (Уорис Хуссейн) [1983, драма, мелодрама, DVDRip-AVC] MVO / Драмы

12 | 2

2.34 ГБ

В этой теме нет новых непрочитанных сообщений. Силквуд / Silkwood (Майк Николс) [1983, драма, BDRip] DVO

4 | 0

2.18 ГБ

В этой теме нет новых непрочитанных сообщений. Силквуд / Silkwood (Майк Николс) [1983, драма, HDTVRip] DVO+VO

0 | 0

1.46 ГБ

В этой теме нет новых непрочитанных сообщений. Под огнем / Under Fire (Роджер Споттисвуд) [1983, драма, военный, BDRip] DUB+DVO

0 | 0

2.52 ГБ

В этой теме нет новых непрочитанных сообщений. Под огнем / Under Fire (Роджер Споттисвуд) [1983, драма, военный, HDTVRip] DUB / Драмы

0 | 0

1.46 ГБ

В этой теме нет новых непрочитанных сообщений. Бойцовая рыбка / Rumble Fish (Френсис Форд Коппола) [1983, драма, LowHDRip-AVC] MVO+AVO

11 | 0

744.32 МБ




Вы не можете начинать темы
Вы не можете отвечать на сообщения
Вы не можете редактировать свои сообщения
Вы не можете удалять свои сообщения
Вы не можете добавлять вложения

Перейти:  
 Вход
ppkBB3cker v.2 © 2008-2014 @ PPK
[ Time : 0.341s | 16 Queries | GZIP : Off ]

cron