img image001 image001 image001 image001 image001 image001 image001 image001 image001 image001 image001 image001 image001 image001 image001 image001

Planets Sun Sun Sun
Статистика раздачи
Автор: Снежана | Размер: 1.45 ГБ | Добавлен: 13 авг 2018
Раздают: 140    Качают: 11
Скачать торрент
Скачать торрент
Описание торрента

СообщениеДобавлено: 13 авг 2018 

Точка отрыва / Action Point


Перевод: Профессиональный (полное дублирование) Лицензия, субтитры: отсутствуют
Формат: BDRip-AVC, MKV, H.264, AC3
Страна: США
Режиссер: Тим Киркби
Жанр: комедия
Продолжительность: 01:28:26
Год выпуска: 2018
В ролях: Джонни Ноксвил, Сьюзэн Йигли, Крис Понтиус, Бригитт Ланди-Пейн, Джонни Пембертон, Дэн Баккедаль, Элинор Вортингтон-Кокс, Дэна Шик, Джошуа Хувер, Коннер МакВикер

Описание: История безрассудного парня, который решает претворить в жизнь свой амбициозный проект. Собрав команду таких же сумасбродов, он конструирует и открывает совершенно особенный парк развлечений. К какой-то катастрофе это приведет?



Видео: 1024x432 (2.40:1), 23.976 fps, AVC MPEG-4 (H.264), ~1951 kbps, 0.184 bit/pixel
Аудио: 48 kHz, AC3 Dolby Digital, 3/2 (L,C,R,l,r) + LFE ch, ~448 kbps
General
Unique ID : 37611984142516632091749278132723073553 (0x1C4BCDFDB9A5ABCCA684DE2D3A794211)
Complete name : C:\Users\Юрик\Desktop\Action Point.2O18.D.BDRip-AVC_[tfile.ru].mkv
Format : Matroska
Format version : Version 2
File size : 1.45 GiB
Duration : 1h 24mn
Overall bit rate : 2 448 Kbps
Writing application : Lavf55.12.100
Writing library : Lavf55.12.100 / Lavf55.12.100

Video
ID : 2
Format : AVC
Format/Info : Advanced Video Codec
Format profile :
Format settings, CABAC : Yes
Format settings, ReFrames : 2 frames
Codec ID : V_MPEG4/ISO/AVC
Duration : 1h 24mn
Bit rate : 1 951 Kbps
Width : 1 024 pixels
Height : 432 pixels
Display aspect ratio : 2.40:1
Frame rate mode : Constant
Frame rate : 23.976 (24000/1001) fps
Color space : YUV
Chroma subsampling : 4:2:0
Bit depth : 8 bits
Scan type : Progressive
Bits/(Pixel*Frame) : 0.184
Stream size : 1.15 GiB (80%)
Default : Yes
Forced : No
Statistics Tags Issue : mkvmerge v7.4.0 ('Circles') 64bit built on Dec 12 2014 12:19:56 2018-08-12 09:30:44 / Lavf55.12.100
FromStats_BitRate : 9448995
FromStats_Duration : 01:24:37.906000000
FromStats_FrameCount : 121748
FromStats_StreamSize : 5997638658

Audio
ID : 1
Format : AC-3
Format/Info : Audio Coding 3
Mode extension : CM (complete main)
Format settings, Endianness : Big
Codec ID : A_AC3
Duration : 1h 24mn
Bit rate mode : Constant
Bit rate : 448 Kbps
Channel(s) : 6 channels
Channel positions : Front: L C R, Side: L R, LFE
Sampling rate : 48.0 KHz
Frame rate : 31.250 fps (1536 spf)
Bit depth : 32 bits
Compression mode : Lossy
Stream size : 271 MiB (18%)
Default : Yes
Forced : No
Statistics Tags Issue : mkvmerge v7.4.0 ('Circles') 64bit built on Dec 12 2014 12:19:56 2018-08-12 09:30:44 / Lavf55.12.100
FromStats_BitRate : 448000
FromStats_Duration : 01:24:37.920000000
FromStats_FrameCount : 158685
FromStats_StreamSize : 284363520













   Похожие торренты   Торрент   Размер 
В этой теме нет новых непрочитанных сообщений. Точка отрыва / Action Point (Тим Киркби) [2018, комедия, HDRip] DUB

251 | 0

1.37 ГБ

В этой теме нет новых непрочитанных сообщений. Точка отрыва / Action Point (2018) BDRip от ExKinoRay | Лицензия

369 | 8

1.46 ГБ

В этой теме нет новых непрочитанных сообщений. Точка отрыва / Action Point (2018) BDRip 1080p от ExKinoRay | Лицензия

277 | 22

8.02 ГБ

В этой теме нет новых непрочитанных сообщений. Точка отрыва / Action Point (2018) HDRip от Generalfilm | КПК | Лицензия

72 | 6

321.9 МБ

В этой теме нет новых непрочитанных сообщений. Такси 5 / Taxi 5 (Франк Гастамбид) [2018, боевик, комедия, криминал, приключения, BDRip] DUB / Боевики /Action

113 | 17

1.42 ГБ

В этой теме нет новых непрочитанных сообщений. Точка R / R-Point (2004) BDRip by msltel | A

67 | 56

2 ГБ

В этой теме нет новых непрочитанных сообщений. Точка R / R-Point (2004) BDRip 720p by msltel | A

89 | 31

6.44 ГБ




Вы не можете начинать темы
Вы не можете отвечать на сообщения
Вы не можете редактировать свои сообщения
Вы не можете удалять свои сообщения
Вы не можете добавлять вложения

Перейти:  
 Вход
ppkBB3cker v.2 © 2008-2014 @ PPK
[ Time : 0.018s | 17 Queries | GZIP : Off ]

cron