img image001 image001 image001 image001 image001 image001 image001 image001 image001 image001 image001 image001 image001 image001 image001 image001

Planets Sun Sun Sun
Статистика раздачи
Автор: Снежана | Размер: 2.49 ГБ | Добавлен: 14 авг 2018
Раздают: 1909    Качают: 68
Скачать торрент
Скачать торрент
Описание торрента

СообщениеДобавлено: 14 авг 2018 

Информация о фильме
Год выхода: 2018
Наименование: Суперсемейка 2
Оригинальное наименование: Incredibles 2
Страна: США
Жанр: мультфильм, фантастика, боевик, комедия, приключения, семейный
Режиссер постановщик: Брэд Бёрд
В главных ролях: Крэйг Т. Нельсон, Холли Хантер, Сара Вауэлл, Хак Милнер, Кэтрин Кинер, Илай Фучиле, Боб Оденкёрк, Сэмюэл Л. Джексон, Майкл Бёрд, София Буш
О фильме: После событий первой части суперсемейка пользуется повышенным вниманием со стороны журналистов. Неожиданно оказалось, что обаятельная Миссис Исключительная гораздо лучше смотрится на экране телевизора, чем её муж. Мистеру Исключительному все чаще приходится сидеть дома и приглядывать за детьми, у каждого из которых есть свои причины быть недовольным собственными суперспособностями. Однако семейным проблемам предстоит отступить на второй план, когда окажется, что спокойствию Суперсемейки угрожает новый могущественный враг.

Файл
Качество: TS 720p
Видео данные: MKV, 1280x530 (2.40:1), 23.976 fps, 3100 Кбит/с
Аудио данные: AAC, 2 ch, 192 Кбит/с
Перевод: Любительский многоголосый (GreenРай Studio)
Продолжительность: 01:48:08
Семпл
General
Unique ID : 193273529549680746106973344049157742294 (0x916720B79CF69D586B8A07D8F3F19ED6)
Complete name : E:ГРИНРАЙIncredibles.2.2018.P.TS.720p.mkv
Format : Matroska
Format version : Version 4 / Version 2
File size : 2.49 GiB
Duration : 1 h 48 min
Overall bit rate : 3 292 kb/s
Encoded date : UTC 2018-07-26 16:34:07
Writing application : mkvmerge v25.0.0 ('Prog Noir') 64-bit
Writing library : libebml v1.3.6 + libmatroska v1.4.9
Video
ID : 1
Format : AVC
Format/Info : Advanced Video Codec
Format profile : High@L3.1
Format settings : CABAC / 1 Ref Frames
Format settings, CABAC : Yes
Format settings, RefFrames : 1 frame
Format settings, GOP : M=1, N=30
Codec ID : V_MPEG4/ISO/AVC
Duration : 1 h 48 min
Bit rate : 3 100 kb/s
Width : 1 280 pixels
Height : 530 pixels
Display aspect ratio : 2.40:1
Frame rate mode : Constant
Frame rate : 23.976 (24000/1001) FPS
Color space : YUV
Chroma subsampling : 4:2:0
Bit depth : 8 bits
Scan type : Progressive
Bits/(Pixel*Frame) : 0.191
Stream size : 2.34 GiB (94%)
Language : English
Default : Yes
Forced : No
Audio
ID : 2
Format : AAC
Format/Info : Advanced Audio Codec
Format profile : LC
Codec ID : A_AAC-2
Duration : 1 h 48 min
Bit rate : 192 kb/s
Channel(s) : 2 channels
Channel positions : Front: L R
Sampling rate : 48.0 kHz
Frame rate : 46.875 FPS (1024 SPF)
Compression mode : Lossy
Stream size : 147 MiB (6%)
Language : English
Default : Yes
Forced : No

Внимание, имеется видео и аудио реклама от спонсора показа

Релиз от:



   Похожие торренты   Торрент   Размер 
В этой теме нет новых непрочитанных сообщений. Суперсемейка 2 / Incredibles 2 (2018) TS | GreenРай Studio

669 | 22

1.37 ГБ

В этой теме нет новых непрочитанных сообщений. Суперсемейка 2 / Incredibles 2 (Брэд Бёрд) [2018, мультфильм, фантастика, боевик, комедия, приключения, семейный, TeleSynch]

1196 | 18

1.34 ГБ

В этой теме нет новых непрочитанных сообщений. Суперсемейка / The Incredibles (2004) BDRip 720p | D

565 | 32

2.73 ГБ

В этой теме нет новых непрочитанных сообщений. Суперсемейка / The Incredibles (2004) BDRip 720p от R.G. HD-Films | 60 fps

19 | 36

7.16 ГБ

В этой теме нет новых непрочитанных сообщений. Суперсемейка / The Incredibles (2004) BDRip 720p от Leonardo and Scarabey

754 | 32

2.99 ГБ

В этой теме нет новых непрочитанных сообщений. Суперсемейка / The Incredibles (2004) BDRip-AVC | D

208 | 41

793.52 МБ

В этой теме нет новых непрочитанных сообщений. Суперсемейка / The Incredibles (2004) BDRip | КПК | D

422 | 6

469.29 МБ




Вы не можете начинать темы
Вы не можете отвечать на сообщения
Вы не можете редактировать свои сообщения
Вы не можете удалять свои сообщения
Вы не можете добавлять вложения

Перейти:  
 Вход
ppkBB3cker v.2 © 2008-2014 @ PPK
[ Time : 0.070s | 15 Queries | GZIP : Off ]

cron