img image001 image001 image001 image001 image001 image001 image001 image001 image001 image001 image001 image001 image001 image001 image001 image001

Planets Sun Sun Sun
Статистика раздачи
Автор: Снежана | Размер: 3.38 ГБ | Добавлен: 14 авг 2018
Раздают: 84    Качают: 1
Скачать торрент
Скачать торрент
Описание торрента

СообщениеДобавлено: 14 авг 2018 

Информация о фильме
Название: Смерть Супермена
Оригинальное название: The Death of Superman
Год выхода: 2018
Жанр: мультфильм, фантастика, боевик
Режиссер: Джейк Касторена, Сэм Лью
В ролях: Джерри О’Коннелл, Ребекка Ромейн, Рэйн Уилсон, Розарио Доусон, Нэйтан Филлион, Кристофер Горам, Мэтт Лантер, Шемар Мур
О фильме:
Кларк Кент подумывает о том, чтобы раскрыть возлюбленной Лоис Лэйн свой самый большой секрет - что он является Суперменом. В это же время на Землю прибывает страшное чудовище Думсдэй, обладающее невероятной силой и злобой. Все супергерои в составе Лиги справедливости с трудом сдерживают монстра, поэтому Супермену придётся отложить свои личные дела и постараться помочь товарищам победить врага...

Страна: США
Студия: DC Entertainment, Warner Bros. Animation
Продолжительность: 01:20:55
Перевод: Профессиональный (многоголосый, закадровый) | HDrezka Studio
Файл
Кодек: x.264
Качество: BDRip 1080p
Видео: MPEG-4 AVC, 1920x1080, 5408 Kбит/с, 23.976 кадр/с
Аудио #1: Русский ( АС3, 2ch, 192 Кбит/с, 48.0 KHz) Профессиональный (многоголосый, закадровый) HDrezka Studio
Аудио #2: Английский ( АС3, 6ch, 384 Кбит/с, 48.0 KHz)
Субтитры: английские
Источник: The.Death.of.Superman.2018.1080p.BluRay.x264.DTS-MT
General
Unique ID : 180319627078715827369447111909807417236 (0x87A84C03F161ACA2803C98C44FEEE794)
Complete name : The.Death.of.Superman.2018.BDRip.1080p.mkv
Format : Matroska
Format version : Version 4 / Version 2
File size : 3.38 GiB
Duration : 1 h 20 min
Overall bit rate : 5 982 kb/s
Encoded date : UTC 2018-07-26 22:39:52
Writing application : mkvmerge v7.1.0 ('Good Love') 64bit built on Jul 27 2014 13:06:55
Writing library : libebml v1.3.0 + libmatroska v1.4.1
Video
ID : 1
Format : AVC
Format/Info : Advanced Video Codec
Format profile : High@L4.1
Format settings : CABAC / 4 Ref Frames
Format settings, CABAC : Yes
Format settings, ReFrames : 4 frames
Codec ID : V_MPEG4/ISO/AVC
Duration : 1 h 20 min
Bit rate : 5 408 kb/s
Width : 1 920 pixels
Height : 1 080 pixels
Display aspect ratio : 16:9
Frame rate mode : Constant
Frame rate : 23.976 (24000/1001) FPS
Color space : YUV
Chroma subsampling : 4:2:0
Bit depth : 8 bits
Scan type : Progressive
Bits/(Pixel*Frame) : 0.109
Stream size : 3.05 GiB (90%)
Writing library : x264 core 155 r2901 7d0ff22
Encoding settings : cabac=1 / ref=4 / deblock=1:-3:-3 / analyse=0x3:0x113 / me=umh / subme=10 / psy=1 / psy_rd=1.05:0.10 / mixed_ref=1 / me_range=48 / chroma_me=1 / trellis=2 / 8x8dct=1 / cqm=0 / deadzone=21,11 / fast_pskip=0 / chroma_qp_offset=-2 / threads=12 / lookahead_threads=1 / sliced_threads=0 / nr=0 / decimate=1 / interlaced=0 / bluray_compat=0 / constrained_intra=0 / bframes=6 / b_pyramid=2 / b_adapt=2 / b_bias=0 / direct=3 / weightb=1 / open_gop=0 / weightp=2 / keyint=250 / keyint_min=23 / scenecut=40 / intra_refresh=0 / rc=2pass / mbtree=0 / bitrate=5408 / ratetol=2.0 / qcomp=0.70 / qpmin=0 / qpmax=69 / qpstep=4 / cplxblur=20.0 / qblur=0.5 / ip_ratio=1.40 / pb_ratio=1.30 / aq=3:1.00
Language : English
Default : Yes
Forced : No
Audio #1
ID : 2
Format : AC-3
Format/Info : Audio Coding 3
Codec ID : A_AC3
Duration : 1 h 20 min
Bit rate mode : Constant
Bit rate : 192 kb/s
Channel(s) : 2 channels
Channel positions : Front: L R
Sampling rate : 48.0 kHz
Frame rate : 31.250 FPS (1536 SPF)
Bit depth : 16 bits
Compression mode : Lossy
Stream size : 111 MiB (3%)
Language : Russian
Service kind : Complete Main
Default : Yes
Forced : No
Audio #2
ID : 3
Format : AC-3
Format/Info : Audio Coding 3
Codec ID : A_AC3
Duration : 1 h 20 min
Bit rate mode : Constant
Bit rate : 384 kb/s
Channel(s) : 6 channels
Channel positions : Front: L C R, Side: L R, LFE
Sampling rate : 48.0 kHz
Frame rate : 31.250 FPS (1536 SPF)
Bit depth : 16 bits
Compression mode : Lossy
Stream size : 222 MiB (6%)
Language : English
Service kind : Complete Main
Default : No
Forced : No
Text
ID : 4
Format : UTF-8
Codec ID : S_TEXT/UTF8
Codec ID/Info : UTF-8 Plain Text
Duration : 1 h 19 min
Bit rate : 49 b/s
Count of elements : 810
Stream size : 29.0 KiB (0%)
Language : English
Default : No
Forced : No
Menu
00:00:00.000 : en:00:00:00.000
00:09:32.071 : en:00:09:32.071
00:20:02.410 : en:00:20:02.410
00:32:29.489 : en:00:32:29.489
00:40:17.707 : en:00:40:17.707
00:51:40.055 : en:00:51:40.055
01:03:31.307 : en:01:03:31.307
01:10:59.797 : en:01:10:59.797
01:17:04.161 : en:01:17:04.161



   Похожие торренты   Торрент   Размер 
В этой теме нет новых непрочитанных сообщений. Смерть Супермена / The Death of Superman (2018) BDRemux 1080p | HDRezka Studio

20 | 2

9.81 ГБ

В этой теме нет новых непрочитанных сообщений. Смерть Супермена / The Death of Superman (2018) WEB-DLRip 1080p | Flarrow Films

48 | 5

3.09 ГБ

В этой теме нет новых непрочитанных сообщений. Смерть Супермена / The Death of Superman (Джейк Касторена, Сэм Лью) [2018, мультфильм, фантастика, боевик, BDRip-AVC] MVO

10 | 0

1.83 ГБ

В этой теме нет новых непрочитанных сообщений. Между мирами / Between Worlds (2018) BDRip 1080p | HDRezka Studio

217 | 9

8.33 ГБ

В этой теме нет новых непрочитанных сообщений. Секса не будет!!! / Blockers (2018) BDRip 1080p от ExKinoRay | HDRezka Studio

540 | 43

9.76 ГБ

В этой теме нет новых непрочитанных сообщений. Код 211 / 211 (2018) BDRemux 1080p | HDrezka Studio

54 | 12

19.01 ГБ

В этой теме нет новых непрочитанных сообщений. Искаженный / Distorted (2018) WEB-DL 1080p от ExKinoRay | HDRezka Studio

379 | 30

2.84 ГБ




Вы не можете начинать темы
Вы не можете отвечать на сообщения
Вы не можете редактировать свои сообщения
Вы не можете удалять свои сообщения
Вы не можете добавлять вложения

Перейти:  
 Вход
ppkBB3cker v.2 © 2008-2014 @ PPK
[ Time : 0.017s | 15 Queries | GZIP : Off ]

cron