img image001 image001 image001 image001 image001 image001 image001 image001 image001 image001 image001 image001 image001 image001 image001 image001

Planets Sun Sun Sun
Статистика раздачи
Автор: Снежана | Размер: 7.45 ГБ | Добавлен: 14 авг 2018
Раздают: 0    Качают: 0
Скачать торрент
Скачать торрент
Описание торрента

СообщениеДобавлено: 14 авг 2018 

Информация о фильме
Название: Шерлок Гномс
Оригинальное название: Sherlock Gnomes
Год выхода: 2018
Жанр: Мультфильм, фэнтези, мелодрама, комедия, детектив, приключения, семейный, полнометражный
Режиссер: Джон Стивенсон
В ролях: Эмили Блант, Джонни Депп, Джеймс МакЭвой, Мэри Джей Блайдж, Майкл Кейн, Мэгги Смит, Чиветел Эджиофор, Стивен Мерчант

О фильме: Гномео и Джульетту ждет новое захватывающее приключение — теперь в огромном Лондоне. Когда герои с семьями и друзьями переезжают в город, их главная забота — подготовить свой новый сад к весне. Но вскоре они узнают тревожную новость: по всему Лондону таинственным образом исчезают их собратья-гномы! И вот однажды Гномео и Джульетта, вернувшись домой, обнаруживают, что и вся их родня исчезла. В такой ситуации на выручку может прийти только… Шерлок Гномс. Известный детектив становится на защиту обитателей лондонских садов и не без помощи своего верного спутника Ватсона берется раскрыть запутанное дело.
Страна: Великобритания, США
Студия: Metro-Goldwyn-Mayer (MGM)
Продолжительность: 01:26:18
Перевод: Дублированный | iTunes
Качество: BDRip 1080p
Видео: MPEG-4 AVC, 1920x804, 10.5 Mbit/s, 23.976 fps
Звук:
Аудио #01: 48 kHz, AC3, 5.1, 384 Kbps | iTunes | RUS |
Аудио #02: 48 kHz, DTS, 5.1, 1510 Kbps | Оригинал | ENG |
Субтитры: Русские (Forced, full), английские

General
Unique ID : 174160812477973601556400375518569137729 (0x83062702F767307EB9B5A9ED18E38641)
Complete name : D:Video111Sherlock.Gnomes.2018.BDRip.1080p.ExKinoRay.mkv
Format : Matroska
Format version : Version 4 / Version 2
File size : 7.45 GiB
Duration : 1 h 26 min
Overall bit rate : 12.4 Mb/s
Movie name : Sherlock Gnomes 2018 from ExKinoRay
Encoded date : UTC 2018-07-31 20:07:57
Writing application : mkvmerge v7.3.0 ('Nouages') 64bit built on Oct 22 2014 18:53:34
Writing library : libebml v1.3.0 + libmatroska v1.4.1
Video
ID : 1
Format : AVC
Format/Info : Advanced Video Codec
Format profile : High@L4.1
Format settings : CABAC / 5 Ref Frames
Format settings, CABAC : Yes
Format settings, ReFrames : 5 frames
Codec ID : V_MPEG4/ISO/AVC
Duration : 1 h 26 min
Bit rate : 10.5 Mb/s
Width : 1 920 pixels
Height : 804 pixels
Display aspect ratio : 2.40:1
Frame rate mode : Constant
Frame rate : 23.976 (24000/1001) FPS
Color space : YUV
Chroma subsampling : 4:2:0
Bit depth : 8 bits
Scan type : Progressive
Bits/(Pixel*Frame) : 0.282
Stream size : 6.30 GiB (85%)
Writing library : x264 core 142 r2431+42 c69a006 tMod [8-bit@4:2:0 X86_64]
Encoding settings : cabac=1 / ref=5 / deblock=1:-3:-3 / analyse=0x3:0x113 / me=umh / subme=10 / psy=1 / fade_compensate=0.00 / psy_rd=1.00:0.05 / mixed_ref=1 / me_range=48 / chroma_me=1 / trellis=2 / 8x8dct=1 / cqm=0 / deadzone=21,11 / fast_pskip=0 / chroma_qp_offset=-2 / threads=48 / lookahead_threads=6 / sliced_threads=0 / nr=0 / decimate=1 / interlaced=0 / bluray_compat=0 / constrained_intra=0 / fgo=0 / bframes=8 / b_pyramid=2 / b_adapt=2 / b_bias=0 / direct=3 / weightb=1 / open_gop=0 / weightp=2 / keyint=250 / keyint_min=23 / scenecut=40 / intra_refresh=0 / rc_lookahead=40 / rc=crf / mbtree=0 / crf=15.6000 / qcomp=0.60 / qpmin=0:0:0 / qpmax=69:69:69 / qpstep=4 / vbv_maxrate=40000 / vbv_bufsize=30000 / crf_max=0.0 / nal_hrd=none / filler=0 / ip_ratio=1.40 / pb_ratio=1.30 / aq=3:0.80 / aq-sensitivity=10.00 / aq-factor=1.00:1.00:1.00 / aq2=0 / aq3=0
Language : English
Default : Yes
Forced : No
Color range : Limited
Matrix coefficients : BT.709
Audio #1
ID : 2
Format : AC-3
Format/Info : Audio Coding 3
Codec ID : A_AC3
Duration : 1 h 26 min
Bit rate mode : Constant
Bit rate : 384 kb/s
Channel(s) : 6 channels
Channel positions : Front: L C R, Side: L R, LFE
Sampling rate : 48.0 kHz
Frame rate : 31.250 FPS (1536 SPF)
Bit depth : 16 bits
Compression mode : Lossy
Stream size : 237 MiB (3%)
Title : iTunes
Language : Russian
Service kind : Complete Main
Default : Yes
Forced : Yes
Audio #2
ID : 3
Format : DTS
Format/Info : Digital Theater Systems
Codec ID : A_DTS
Duration : 1 h 26 min
Bit rate mode : Constant
Bit rate : 1 509 kb/s
Channel(s) : 6 channels
Channel positions : Front: L C R, Side: L R, LFE
Sampling rate : 48.0 kHz
Frame rate : 93.750 FPS (512 SPF)
Bit depth : 24 bits
Compression mode : Lossy
Stream size : 932 MiB (12%)
Title : Original
Language : English
Default : No
Forced : No
Text #1
ID : 4
Format : UTF-8
Codec ID : S_TEXT/UTF8
Codec ID/Info : UTF-8 Plain Text
Duration : 1 h 13 min
Bit rate : 0 b/s
Count of elements : 10
Stream size : 224 Bytes (0%)
Title : Forced
Language : Russian
Default : Yes
Forced : Yes
Text #2
ID : 5
Format : UTF-8
Codec ID : S_TEXT/UTF8
Codec ID/Info : UTF-8 Plain Text
Duration : 1 h 25 min
Bit rate : 94 b/s
Count of elements : 1129
Stream size : 58.8 KiB (0%)
Title : Full
Language : Russian
Default : No
Forced : No
Text #3
ID : 6
Format : UTF-8
Codec ID : S_TEXT/UTF8
Codec ID/Info : UTF-8 Plain Text
Duration : 1 h 24 min
Bit rate : 66 b/s
Count of elements : 1182
Stream size : 41.4 KiB (0%)
Title : Full
Language : English
Default : No
Forced : No
Menu
00:00:00.000 : en:00:00:00.000
00:05:36.127 : en:00:05:36.127
00:10:50.650 : en:00:10:50.650
00:16:40.166 : en:00:16:40.166
00:24:05.944 : en:00:24:05.944
00:29:44.074 : en:00:29:44.074
00:35:39.512 : en:00:35:39.512
00:40:52.909 : en:00:40:52.909
00:45:41.530 : en:00:45:41.530
00:52:31.982 : en:00:52:31.982
00:58:29.756 : en:00:58:29.756
01:04:58.520 : en:01:04:58.520
01:10:40.069 : en:01:10:40.069
01:16:03.058 : en:01:16:03.058
01:17:55.212 : en:01:17:55.212

Релиз от: Автор релиза:
Подпишись на меня, кликни по картинке > :



   Похожие торренты   Торрент   Размер 
В этой теме нет новых непрочитанных сообщений. Шерлок Гномс / Sherlock Gnomes (2017) BDRemux 1080p от ExKinoRay | iTunes

65 | 13

20.63 ГБ

В этой теме нет новых непрочитанных сообщений. Шерлок Гномс / Sherlock Gnomes (2017) BDRip 720p от ExKinoRay | iTunes

0 | 0

3.65 ГБ

В этой теме нет новых непрочитанных сообщений. Шерлок Гномс / Sherlock Gnomes (2018) BDRip от ExKinoRay | iTunes

74 | 0

1.42 ГБ

В этой теме нет новых непрочитанных сообщений. Шерлок Гномс / Sherlock Gnomes (2018) BDRip от MegaPeer | iTunes

0 | 0

1.42 ГБ

В этой теме нет новых непрочитанных сообщений. Шерлок Гномс / Sherlock Gnomes (2018) BDRip-AVC от OlLanDGroup | iTunes

35 | 2

1.5 ГБ

В этой теме нет новых непрочитанных сообщений. Шерлок Гномс / Sherlock Gnomes (2018) HDRip от Generalfilm | КПК | iTunes

60 | 7

328.38 МБ

В этой теме нет новых непрочитанных сообщений. Шерлок Гномс / Sherlock Gnomes (2018) HDRip от MegaPeer | iTunes

0 | 0

745.25 МБ




Вы не можете начинать темы
Вы не можете отвечать на сообщения
Вы не можете редактировать свои сообщения
Вы не можете удалять свои сообщения
Вы не можете добавлять вложения

Перейти:  
 Вход
ppkBB3cker v.2 © 2008-2014 @ PPK
[ Time : 0.028s | 16 Queries | GZIP : Off ]

cron