img image001 image001 image001 image001 image001 image001 image001 image001 image001 image001 image001 image001 image001 image001 image001 image001

Planets Sun Sun Sun
Статистика раздачи
Автор: Снежана | Размер: 49.59 ГБ | Добавлен: 14 авг 2018
Раздают: 146    Качают: 42
Скачать торрент
Скачать торрент
Описание торрента

СообщениеДобавлено: 14 авг 2018 

Обитель теней
Marrowbone
«Мы здесь не одни»

Информация о фильме
Название: Обитель теней
Оригинальное название: Marrowbone
Год выпуска: 2017
Жанр: Ужасы, триллер, драма
Выпущено: Испания, Lions Gate International
Режиссер: Серхио Х. Санчес
В ролях: Джордж МакКэй, Аня Тейлор-Джой, Чарли Хитон, Миа Гот, Мэттью Стэгг, Николя Харрисон, Кайл Соллер, Том Фишер, Пол Джессон
Продолжительность: 01:50:41
Перевод: Дублированный
Описание:
Женщина с четырьмя детьми, тремя сыновьями и дочерью, от чего-то скрывается. Они находят пристанище в большом уединенном старом доме и решают остаться здесь жить. На ближайшей к их дому ферме живет симпатичная девушка Элли, с которой дети сразу же подружились. Но вскоре идиллической жизни приходит конец — мать умирает, и в доме начинают происходить странные вещи.


Файл
Контейнер: МКV
Качество: Blu-Ray Remux (2160p)
Видео: HEVC, 3840x2160 (16:9), 23.976 fps, 59.1 Mb/s (0.297 bit/pixel)
Аудио #1: AC-3, 48.0 kHz, 6 ch, 384 kb/s, CBR (Russian) | Дублированный |
Аудио #2: AC-3, 48.0 kHz, 6 ch, 384 kb/s, CBR (Ukrainian) | MVO, iTunes |
Аудио #3: TrueHD TrueHD+Atmos / TrueHD, / 48.0 kHz, Object Based / 8 ch, 3 792 kb/s, VBR (English)
Аудио #4: AC-3, 48.0 kHz, 6 ch, 640 kb/s, CBR (English)
Субтитры: Английские (full)
Релиз от: Автор релиза: Ivantsov




Общее
Уникальный идентификатор : 123662076947202346740885442868832124341 (0x5D08731F64AE7AD0D1F4453E14F43DB5)
Полное имя : Marrowbone.2017.UHD.BDRemux.2160p.HEVC.HDR.IVA(RUS.UKR.ENG).ExKinoRay.mkv
Формат : Matroska
Версия формата : Version 4 / Version 2
Размер файла : 49,6 Гбайт
Продолжительность : 1 ч. 50 м.
Режим общего битрейта : Переменный
Общий поток : 64,4 Мбит/сек
Название фильма : Обитель теней / Marrowbone ( 2017 ) UHD BDRemux | HDR, 4K | IVA(RUS.UKR.ENG) | ExKinoRay
Дата кодирования : UTC 2018-08-12 19:44:11
Программа кодирования : mkvmerge v25.0.0 ('Prog Noir') 64-bit
Библиотека кодирования : libebml v1.3.6 + libmatroska v1.4.9
Обложка : Yes
Attachments : cover
Видео
Идентификатор : 1
Формат : HEVC
Формат/Информация : High Efficiency Video Coding
Коммерческое название : HDR10
Профиль формата : Main 10@L5.1@High
Идентификатор кодека : V_MPEGH/ISO/HEVC
Продолжительность : 1 ч. 50 м.
Битрейт : 59,1 Мбит/сек
Ширина : 3840 пикселей
Высота : 2160 пикселей
Соотношение сторон : 16:9
Режим частоты кадров : Постоянный
Частота кадров : 23,976 (24000/1001) кадра/сек
Цветовое пространство : YUV
Субдискретизация насыщенности : 4:2:0 (Type 2)
Битовая глубина : 10 бит
Бит/(Пиксели*Кадры) : 0.297
Размер потока : 45,5 Гбайт (92%)
Язык : English
Default : Да
Forced : Нет
Цветовой диапазон : Limited
Основные цвета : BT.2020
Характеристики трансфера : PQ
Коэффициенты матрицы : BT.2020 non-constant
MasteringDisplay_ColorPrimaries : R: x=0.340000 y=0.160000, G: x=0.132500 y=0.345000, B: x=0.750000 y=0.300000, White point: x=0.156340 y=0.164500
MasteringDisplay_Luminance : min: 0.0000 cd/m2, max: 4000 cd/m2
MaxCLL : 1518 cd/m2
MaxFALL : 706 cd/m2
Аудио #1
Идентификатор : 2
Формат : AC-3
Формат/Информация : Audio Coding 3
Идентификатор кодека : A_AC3
Продолжительность : 1 ч. 50 м.
Вид битрейта : Постоянный
Битрейт : 384 Кбит/сек
Каналы : 6 каналов
Расположение каналов : Front: L C R, Side: L R, LFE
Частота : 48,0 КГц
Частота кадров : 31,250 кадров/сек (1536 SPF)
Битовая глубина : 16 бит
Метод сжатия : С потерями
Размер потока : 303 Мбайт (1%)
Заголовок : | Дублированный |
Язык : Russian
ServiceKind : Complete Main
Default : Да
Forced : Нет
Аудио #2
Идентификатор : 3
Формат : AC-3
Формат/Информация : Audio Coding 3
Идентификатор кодека : A_AC3
Продолжительность : 1 ч. 50 м.
Вид битрейта : Постоянный
Битрейт : 384 Кбит/сек
Каналы : 6 каналов
Расположение каналов : Front: L C R, Side: L R, LFE
Частота : 48,0 КГц
Частота кадров : 31,250 кадров/сек (1536 SPF)
Битовая глубина : 16 бит
Метод сжатия : С потерями
Размер потока : 303 Мбайт (1%)
Заголовок : | MVO, iTunes |
Язык : Ukrainian
ServiceKind : Complete Main
Default : Нет
Forced : Нет
Аудио #3
Идентификатор : 4
Формат : TrueHD
Профиль формата : TrueHD+Atmos / TrueHD
Идентификатор кодека : A_TRUEHD
Продолжительность : 1 ч. 50 м.
Вид битрейта : Переменный
Битрейт : 3792 Кбит/сек
Максимальный битрейт : 7902 Кбит/сек
Каналы : Object Based / 8 каналов
Расположение каналов : Object Based / Front: L C R, Side: L R, Back: L R, LFE
Частота : / 48,0 КГц
Частота кадров : 1200,000 кадров/сек (40 SPF)
Метод сжатия : Без потерь
Размер потока : 2,92 Гбайт (6%)
Заголовок : | Original |
Язык : English
Default : Нет
Forced : Нет
Аудио #4
Идентификатор : 5
Формат : AC-3
Формат/Информация : Audio Coding 3
Идентификатор кодека : A_AC3
Продолжительность : 1 ч. 50 м.
Вид битрейта : Постоянный
Битрейт : 640 Кбит/сек
Каналы : 6 каналов
Расположение каналов : Front: L C R, Side: L R, LFE
Частота : 48,0 КГц
Частота кадров : 31,250 кадров/сек (1536 SPF)
Битовая глубина : 16 бит
Метод сжатия : С потерями
Размер потока : 505 Мбайт (1%)
Заголовок : | Original, AC3 Core |
Язык : English
ServiceKind : Complete Main
Default : Нет
Forced : Нет
Текст
Идентификатор : 6
Формат : UTF-8
Идентификатор кодека : S_TEXT/UTF8
Идентификатор кодека/Информация : UTF-8 Plain Text
Продолжительность : 1 ч. 41 м.
Битрейт : 33 бит/сек
ElementCount : 940
Размер потока : 24,6 Кбайт (0%)
Заголовок : Full
Язык : English
Default : Нет
Forced : Нет
Меню
00:00:00.000 : en:Chapter 1
00:07:19.147 : en:Chapter 2
00:16:22.648 : en:Chapter 3
00:24:34.014 : en:Chapter 4
00:32:18.770 : en:Chapter 5
00:42:47.648 : en:Chapter 6
00:49:55.617 : en:Chapter 7
00:56:09.908 : en:Chapter 8
01:04:45.881 : en:Chapter 9
01:10:59.463 : en:Chapter 10
01:19:01.736 : en:Chapter 11
01:30:06.442 : en:Chapter 12



   Похожие торренты   Торрент   Размер 
В этой теме нет новых непрочитанных сообщений. Обитель теней / Marrowbone (2017) CAMRip | D

214 | 6

1.37 ГБ

В этой теме нет новых непрочитанных сообщений. Обитель теней / Marrowbone (Серхио Х. Санчес) [2017, ужасы, триллер, драма, WEBDLRip] DUB

47 | 2

1.45 ГБ

В этой теме нет новых непрочитанных сообщений. Обитель теней / Marrowbone (Серхио Х. Санчес) [2017, ужасы, триллер, драма, BDRip] DUB / Мистика

71 | 2

1.41 ГБ

В этой теме нет новых непрочитанных сообщений. Обитель теней / Marrowbone (Серхио Х. Санчес) [2017, ужасы, триллер, драма, HDRip] DUB / Мистика

14 | 0

1.46 ГБ

В этой теме нет новых непрочитанных сообщений. Обитель теней / Marrowbone (Серхио Х. Санчес) [2017, ужасы, триллер, драма, BDRip] DUB / Мистика

11 | 0

745.4 МБ

В этой теме нет новых непрочитанных сообщений. Обитель теней / Marrowbone (Серхио Х. Санчес) [2017, ужасы, триллер, драма, BDRip] DUB / Мистика

11 | 2

2.18 ГБ

В этой теме нет новых непрочитанных сообщений. Обитель теней / Marrowbone (Серхио Х. Санчес) [2017, ужасы, триллер, драма, WEB-DLRip-AVC] 2xDUB (rus, ukr) / Фильмы HDRip

9 | 0

3.56 ГБ




Вы не можете начинать темы
Вы не можете отвечать на сообщения
Вы не можете редактировать свои сообщения
Вы не можете удалять свои сообщения
Вы не можете добавлять вложения

Перейти:  
 Вход
ppkBB3cker v.2 © 2008-2014 @ PPK
[ Time : 0.026s | 18 Queries | GZIP : Off ]

cron