img image001 image001 image001 image001 image001 image001 image001 image001 image001 image001 image001 image001 image001 image001 image001 image001

Planets Sun Sun Sun
Статистика раздачи
Автор: Снежана | Размер: 1.08 ГБ | Добавлен: 14 авг 2018
Раздают: 75    Качают: 5
Скачать торрент
Скачать торрент
Описание торрента

СообщениеДобавлено: 14 авг 2018 

Информация о фильме
Название: Прометей
Оригинальное название: Prometheus
Год выхода: 2012
Жанр: Фантастика, триллер, приключения
Режиссер: Ридли Скотт
В ролях: Нуми Рапас, Майкл Фассбендер, Шарлиз Терон, Идрис Эльба, Гай Пирс, Логан Маршалл-Грин, Шон Харрис, Рейф Сполл, Иман Эллиотт, Бенедикт Вонг, Кейт Дики, Брануэлл Донахи, Владимир 'Фурдо' Фурдик, Шэйн Штейн, Иэн Уайт, Джон Лебар, Дэниэл Джеймс, Патрик Уилсон, Люси Хатчинсон, Джианнина Фасио, Анил Билту, Луиса Стэйплс, Джеймс Эмбри, Флориан Робин, Мэттью Берджесс, Юджин О’Харе, Ричард Томсон, Дженни Рейнсфорд, Филип МакГинли, Рона Крокер, Вамбуи Ва-Нгато, Ваннапорн Риенджанг, Зед Севчикова, Сонам Дугдак, Рейнир Тор Еггертссон, Син-Ичиро Окадзима, Чараламбос Дендринос, Берхейн Вёлдегабриэ
О фильме :
В поисках сакрального знания группа ученых отправляется в самые темные и неизведанные чертоги вселенной. Именно там, в отдаленных мирах, находясь на пределе своих умственных и физических возможностей, им предстоит вступить в безжалостную схватку за будущее всего человечества…

Страна: США, Великобритания
Студия: Brandywine Productions Ltd., Dune Entertainment, Scott Free Productions
Продолжительность: 02:03:51
Перевод: Профессиональный (дублированный), профессиональный (многоголосый, закадровый)
Файл
Формат: MKV
Качество: HDTVRip-AVC
Видео: MPEG-4 AVC, 768x432, ~ 1089 Кбит/с
Аудио 1: AAC-HE, 2 ch, ~ 76 Кбит/с | DUB, «CPIG BD CEE»
Аудио 2: AAC-HE, 2 ch, ~ 76 Кбит/с | MVO, «Первый канал»
Субтитры: русские (forced, full), английские
Общее
Уникальный идентификатор : 182778976294495708054172980735558717702 (0x8981F34B1EE848C791100275C08E9106)
Полное имя : D:MOVIESPrometheus.2012.HDTVRip-AVC.ExKinoRay.mkv
Формат : Matroska
Версия формата : Version 4 / Version 2
Размер файла : 1,08 Гбайт
Продолжительность : 2 ч. 3 м.
Общий поток : 1243 Кбит/сек
Дата кодирования : UTC 2018-08-13 03:50:49
Программа кодирования : mkvmerge v15.0.0 ('Duel with the Devil') 64-bit
Библиотека кодирования : libebml v1.3.5 + libmatroska v1.4.5
Видео
Идентификатор : 1
Формат : AVC
Формат/Информация : Advanced Video Codec
Профиль формата : High@L4.1
Параметр CABAC формата : Да
Параметр RefFrames формата : 12 кадров
Идентификатор кодека : V_MPEG4/ISO/AVC
Продолжительность : 2 ч. 3 м.
Битрейт : 1089 Кбит/сек
Ширина : 768 пикселей
Высота : 432 пикселя
Соотношение сторон : 16:9
Режим частоты кадров : Постоянный
Частота кадров : 23,976 (24000/1001) кадра/сек
Цветовое пространство : YUV
Субдискретизация насыщенности : 4:2:0
Битовая глубина : 8 бит
Тип развёртки : Прогрессивная
Бит/(Пиксели*Кадры) : 0.137
Размер потока : 964 Мбайт (88%)
Библиотека кодирования : x264 core 152 r2851kMod ba24899
Настройки программы : cabac=1 / ref=12 / deblock=1:-3:-3 / analyse=0x3:0x133 / me=umh / subme=10 / psy=1 / fade_compensate=0.00 / psy_rd=1.00:0.16 / mixed_ref=1 / me_range=32 / chroma_me=1 / trellis=2 / 8x8dct=1 / cqm=0 / deadzone=21,11 / fast_pskip=0 / chroma_qp_offset=-3 / threads=6 / lookahead_threads=1 / sliced_threads=0 / nr=0 / decimate=0 / interlaced=0 / bluray_compat=0 / constrained_intra=0 / bframes=11 / b_pyramid=2 / b_adapt=2 / b_bias=0 / direct=3 / weightb=1 / open_gop=0 / weightp=2 / keyint=240 / keyint_min=23 / scenecut=40 / intra_refresh=0 / rc_lookahead=40 / rc=2pass / mbtree=1 / bitrate=1089 / ratetol=1.0 / qcomp=0.60 / qpmin=0 / qpmax=69 / qpstep=4 / cplxblur=20.0 / qblur=0.5 / ip_ratio=1.40 / aq=3:1.00
Default : Да
Forced : Нет
Аудио #1
Идентификатор : 2
Формат : AAC
Формат/Информация : Advanced Audio Codec
Профиль формата : HE-AAC / LC
Идентификатор кодека : A_AAC
Продолжительность : 2 ч. 3 м.
Битрейт : 76,0 Кбит/сек
Каналы : 2 канала
Расположение каналов : Front: L R
Частота : 48,0 КГц / 24,0 КГц
Частота кадров : 23,438 кадра/сек (1024 SPF)
Метод сжатия : С потерями
Задержка видео : 31 мс.
Размер потока : 67,3 Мбайт (6%)
Заголовок : Dub
Язык : Russian
Default : Да
Forced : Нет
Аудио #2
Идентификатор : 3
Формат : AAC
Формат/Информация : Advanced Audio Codec
Профиль формата : HE-AAC / LC
Идентификатор кодека : A_AAC
Продолжительность : 2 ч. 3 м.
Битрейт : 76,0 Кбит/сек
Каналы : 2 канала
Расположение каналов : Front: L R
Частота : 48,0 КГц / 24,0 КГц
Частота кадров : 23,438 кадра/сек (1024 SPF)
Метод сжатия : С потерями
Задержка видео : 31 мс.
Размер потока : 67,3 Мбайт (6%)
Заголовок : MVO
Язык : Russian
Default : Нет
Forced : Нет
Текст #1
Идентификатор : 4
Формат : UTF-8
Идентификатор кодека : S_TEXT/UTF8
Идентификатор кодека/Информация : UTF-8 Plain Text
Продолжительность : 4 м. 26 с.
Битрейт : 15 бит/сек
ElementCount : 10
Размер потока : 514 байт (0%)
Заголовок : Forced
Язык : Russian
Default : Да
Forced : Нет
Текст #2
Идентификатор : 5
Формат : UTF-8
Идентификатор кодека : S_TEXT/UTF8
Идентификатор кодека/Информация : UTF-8 Plain Text
Продолжительность : 1 ч. 51 м.
Битрейт : 71 бит/сек
ElementCount : 1364
Размер потока : 58,3 Кбайт (0%)
Язык : Russian
Default : Нет
Forced : Нет
Текст #3
Идентификатор : 6
Формат : UTF-8
Идентификатор кодека : S_TEXT/UTF8
Идентификатор кодека/Информация : UTF-8 Plain Text
Продолжительность : 1 ч. 51 м.
Битрейт : 45 бит/сек
ElementCount : 1420
Размер потока : 37,3 Кбайт (0%)
Язык : English
Default : Нет
Forced : Нет
Меню
00:00:00.000 : :Chapter 01
00:05:13.145 : :Chapter 02
00:07:44.881 : :Chapter 03
00:11:31.523 : :Chapter 04
00:15:09.782 : :Chapter 05
00:20:04.912 : :Chapter 06
00:22:32.809 : :Chapter 07
00:27:43.119 : :Chapter 08
00:31:57.832 : :Chapter 09
00:34:10.840 : :Chapter 10
00:37:53.228 : :Chapter 11
00:40:45.359 : :Chapter 12
00:45:49.329 : :Chapter 13
00:48:47.925 : :Chapter 14
00:50:23.061 : :Chapter 15
00:53:56.399 : :Chapter 16
00:56:32.222 : :Chapter 17
00:59:31.609 : :Chapter 18
01:01:29.185 : :Chapter 19
01:04:17.562 : :Chapter 20
01:06:01.457 : :Chapter 21
01:08:57.883 : :Chapter 22
01:11:13.519 : :Chapter 23
01:15:10.631 : :Chapter 24
01:17:06.037 : :Chapter 25
01:25:02.305 : :Chapter 26
01:27:09.349 : :Chapter 27
01:30:10.363 : :Chapter 28
01:32:43.724 : :Chapter 29
01:35:23.134 : :Chapter 30
01:37:46.860 : :Chapter 31
01:40:46.372 : :Chapter 32
01:43:46.220 : :Chapter 33
01:48:28.793 : :Chapter 34
01:52:08.095 : :Chapter 35
01:58:06.287 : :Chapter 36
02:03:46.168 : :Chapter 37





   Похожие торренты   Торрент   Размер 
В этой теме нет новых непрочитанных сообщений. Прометей / Prometheus (2012) HDTVRip-AVC от ExKinoRay | Open Matte

34 | 1

4.07 ГБ

В этой теме нет новых непрочитанных сообщений. Прометей / Prometheus (2012) HybridRip-AVC | D | Open Matte

53 | 8

4.7 ГБ

В этой теме нет новых непрочитанных сообщений. Прометей / Prometheus (2012) HDTV 1080i | Open Matte | D, P, A

0 | 0

10.84 ГБ

В этой теме нет новых непрочитанных сообщений. Прометей / Prometheus (2012) Hybrid 1080p | D, P, А | Open Matte

0 | 0

33.7 ГБ

В этой теме нет новых непрочитанных сообщений. Прометей / Prometheus (2012) Hybrid 1080p | D, P, А | Open Matte

4 | 5

33.7 ГБ

В этой теме нет новых непрочитанных сообщений. Прометей / Prometheus (2012) HDTV 1080i | Open Matte | D, P, А

0 | 0

10.84 ГБ

В этой теме нет новых непрочитанных сообщений. Прометей / Prometheus (Ридли Скотт) [Open Matte] [2012, фантастика, триллер, приключения, WEB-DLRip] DUB / Фантастика

7 | 0

1.46 ГБ




Вы не можете начинать темы
Вы не можете отвечать на сообщения
Вы не можете редактировать свои сообщения
Вы не можете удалять свои сообщения
Вы не можете добавлять вложения

Перейти:  
 Вход
ppkBB3cker v.2 © 2008-2014 @ PPK
[ Time : 0.020s | 16 Queries | GZIP : Off ]

cron