img image001 image001 image001 image001 image001 image001 image001 image001 image001 image001 image001 image001 image001 image001 image001 image001

Planets Sun Sun Sun
Статистика раздачи
Автор: Снежана | Размер: 1.41 ГБ | Добавлен: 14 авг 2018
Раздают: 34    Качают: 0
Скачать торрент
Скачать торрент
Описание торрента

СообщениеДобавлено: 14 авг 2018 

Такси 5 / Taxi 5
«Вызывали?»


Год выпуска: 2018
Страна: Франция
Производство: EuropaCorp, T5 Production, ARP Sйlection
Жанр: Боевик, комедия, криминал, приключения
Режиссёр: Франк Гастамбид
В ролях: Франк Гастамбид, Малик Бенталха, Бернар Фарси, Сальваторе Эспозито, Эдуард Монтут, Сабрина Уазани, Ануар Тубали, Сисси Дюпарк
Перевод: Дублированный | iTunes
Субтитры: Английские (полные)
Реклама: Отсутствует
Описание: Экс-комиссар Жибер, ставший самым непутевым в истории города мэром Марселя, поручает переведенному из столицы новобранцу Сильвану Маро разобраться с неуловимой «бандой итальянцев» на Ferrari. Чтобы остановить их, Маро, суперкопу и суперводителю, приходится объединиться с племянником Даниэля. Парню досталось знаменитое белое такси дяди, но не его талант.

Качество: BDRip-AVC | BluRay Disc | Taxi 5 2018 FRENCH COMPLETE BLURAY-UTT
Продолжительность: 01:41:54
Формат: MKV
Видео кодек: MPEG-4 AVC
Аудио кодек: AC3
Видео: 720x302 (2.40:1), 24.000 fps, x264 ~1 601 kbps avg, 0.307 bit/pixel
Аудио: 48 kHz, AC3 Dolby Digital, 3/2 (L,C,R,l,r) + LFE ch, ~384.00 kbps avg | RUS (iTunes)
Дата премьеры (мир): 7 апреля 2018
Дата премьеры (РФ): 10 мая 2018, «Централ Партнершип»
Цифровой релиз: 13 августа 2018, «Централ Партнершип»

Релиз от: Rip by:
Общее
Уникальный идентификатор : 40630510779608381343431945946215771106 (0x1E9126D8360ADADB1270CA3A21786BE2)
Полное имя : F:OlLanDGroupTaxi.5.2018.BDRip(AVC).OlLanDGroup.mkv
Формат : Matroska
Версия формата : Version 4 / Version 2
Размер файла : 1,41 Гбайт
Продолжительность : 1 ч. 41 м.
Общий поток : 1983 Кбит/сек
Название фильма : Taxi.5.2018 #TorpedoUK#
Дата кодирования : UTC 2018-08-13 04:04:29
Программа кодирования : mkvmerge v25.0.0 ('Prog Noir') 64-bit
Библиотека кодирования : libebml v1.3.6 + libmatroska v1.4.9
Видео
Идентификатор : 1
Формат : AVC
Формат/Информация : Advanced Video Codec
Профиль формата : High@L4.1
Параметр CABAC формата : Да
Параметр ReFrames формата : 10 кадров
Идентификатор кодека : V_MPEG4/ISO/AVC
Продолжительность : 1 ч. 41 м.
Битрейт : 1601 Кбит/сек
Ширина : 720 пикселей
Высота : 302 пикселя
Соотношение сторон : 2,40:1
Режим частоты кадров : Постоянный
Частота кадров : 24,000 кадра/сек
Цветовое пространство : YUV
Субдискретизация насыщенности : 4:2:0
Битовая глубина : 8 бит
Тип развёртки : Прогрессивная
Бит/(Пиксели*Кадры) : 0.307
Размер потока : 1,14 Гбайт (81%)
Библиотека кодирования : x264 core 146 r2538 121396c
Настройки программы : cabac=1 / ref=10 / deblock=1:-3:-3 / analyse=0x3:0x113 / me=umh / subme=11 / psy=1 / psy_rd=0.99:0.04 / mixed_ref=1 / me_range=48 / chroma_me=1 / trellis=2 / 8x8dct=1 / cqm=0 / deadzone=21,11 / fast_pskip=1 / chroma_qp_offset=-3 / threads=6 / lookahead_threads=1 / sliced_threads=0 / nr=0 / decimate=1 / interlaced=0 / bluray_compat=0 / constrained_intra=0 / bframes=10 / b_pyramid=2 / b_adapt=2 / b_bias=0 / direct=3 / weightb=1 / open_gop=0 / weightp=2 / keyint=240 / keyint_min=24 / scenecut=40 / intra_refresh=0 / rc_lookahead=40 / rc=2pass / mbtree=1 / bitrate=1601 / ratetol=1.0 / qcomp=0.60 / qpmin=0 / qpmax=69 / qpstep=4 / cplxblur=20.0 / qblur=0.5 / vbv_maxrate=50000 / vbv_bufsize=62500 / nal_hrd=none / filler=0 / ip_ratio=1.40 / aq=1:1.00
Язык : English
Default : Да
Forced : Нет
Аудио
Идентификатор : 2
Формат : AC-3
Формат/Информация : Audio Coding 3
Расширение режима : CM (complete main)
Параметр Endianness формата : Big
Идентификатор кодека : A_AC3
Продолжительность : 1 ч. 41 м.
Вид битрейта : Постоянный
Битрейт : 384 Кбит/сек
Каналы : 6 каналов
Расположение каналов : Front: L C R, Side: L R, LFE
Частота : 48,0 КГц
Частота кадров : 31,250 кадров/сек (1536 spf)
Битовая глубина : 16 бит
Метод сжатия : С потерями
Размер потока : 280 Мбайт (19%)
Заголовок : iTunes
Язык : Russian
Default : Да
Forced : Нет
Текст
Идентификатор : 3
Формат : UTF-8
Идентификатор кодека : S_TEXT/UTF8
Идентификатор кодека/Информация : UTF-8 Plain Text
Продолжительность : 1 ч. 36 м.
Битрейт : 61 бит/сек
Count of elements : 1723
Размер потока : 43,8 Кбайт (0%)
Заголовок : Full
Язык : English
Default : Нет
Forced : Нет
Меню
00:00:00.000 : en:Chapter 1
00:09:24.166 : en:Chapter 2
00:17:19.416 : en:Chapter 3
00:27:35.000 : en:Chapter 4
00:34:09.750 : en:Chapter 5
00:41:46.833 : en:Chapter 6
00:50:04.125 : en:Chapter 7
00:58:29.625 : en:Chapter 8
01:06:05.708 : en:Chapter 9
01:14:53.166 : en:Chapter 10
01:23:59.333 : en:Chapter 11
01:32:28.750 : en:Chapter 12







   Похожие торренты   Торрент   Размер 
В этой теме нет новых непрочитанных сообщений. Такси 5 / Taxi 5 (2018) BDRip от MegaPeer | iTunes

306 | 14

745.82 МБ

В этой теме нет новых непрочитанных сообщений. Такси 5 / Taxi 5 (2018) BDRip-AVC от ExKinoRay | iTunes

305 | 6

2.1 ГБ

В этой теме нет новых непрочитанных сообщений. Такси 5 / Taxi 5 (2018) BDRip от ExKinoRay | iTunes

498 | 7

1.42 ГБ

В этой теме нет новых непрочитанных сообщений. Такси 5 / Taxi 5 (2018) BDRip от MegaPeer | iTunes

7683 | 164

1.42 ГБ

В этой теме нет новых непрочитанных сообщений. Такси 5 / Taxi 5 (2018) BDRip 720p от ExKinoRay | iTunes

1306 | 39

3.93 ГБ

В этой теме нет новых непрочитанных сообщений. Такси 5 / Taxi 5 (2018) BDRip 1080p от ExKinoRay | iTunes

901 | 12

7.37 ГБ

В этой теме нет новых непрочитанных сообщений. Такси 5 / Taxi 5 (2018) BDRip 1080p от HELLYWOOD | iTunes

0 | 0

7.56 ГБ




Вы не можете начинать темы
Вы не можете отвечать на сообщения
Вы не можете редактировать свои сообщения
Вы не можете удалять свои сообщения
Вы не можете добавлять вложения

Перейти:  
 Вход
ppkBB3cker v.2 © 2008-2014 @ PPK
[ Time : 0.035s | 16 Queries | GZIP : Off ]

cron