img image001 image001 image001 image001 image001 image001 image001 image001 image001 image001 image001 image001 image001 image001 image001 image001

Planets Sun Sun Sun
Статистика раздачи
Автор: Снежана | Размер: 1.83 ГБ | Добавлен: 14 авг 2018
Раздают: 19    Качают: 0
Скачать торрент
Скачать торрент
Описание торрента

СообщениеДобавлено: 14 авг 2018 

Информация о фильме
Год выхода: 2015
Наименование: Сокровище
Оригинальное наименование: Comoara
Страна: Румыния, Франция
Жанр: комедия
Режиссер постановщик: Корнелиу Порумбойю
В главных ролях: Тома Кузин, Раду Банзару, Дэн Чириак, Флорин Кеворкян, Лауренциу Лазар
О фильме: Действие происходит в Бухаресте. Кости, молодой и счастливый отец семейства, любит по вечерам читать своему шестилетнему сыну приключения Робин Гуда. Однажды сосед по секрету рассказывает ему, что в саду его бабушки и дедушки зарыт клад. И если Кости согласится взять напрокат металлоискатель и пойти с ним на поиски сокровища, то сосед поделится с ним найденным. На место недоверию и сомнениям приходит азарт, и Кости в итоге соглашается несмотря на всевозможные препятствия...

Файл
Качество: HDTVRip 720p
Видео данные: MKV, 1280x540 (2.40:1), 23.976 fps, 2865 Кбит/с
Аудио данные: AAC, 2 ch, 192 Кбит/с
Перевод: Любительский многоголосый (GreenРай Studio)
Продолжительность: 01:25:07
General
Unique ID : 85223498692106772454408924007740156974 (0x401D72E53091086E619D44446D532C2E)
Complete name : D:ГРИНРАЙComoara.2015.P.HDTV.720p.mkv
Format : Matroska
Format version : Version 4 / Version 2
File size : 1.83 GiB
Duration : 1 h 25 min
Overall bit rate : 3 057 kb/s
Encoded date : UTC 2018-08-12 11:54:53
Writing application : mkvmerge v25.0.0 ('Prog Noir') 64-bit
Writing library : libebml v1.3.6 + libmatroska v1.4.9
Video
ID : 1
Format : AVC
Format/Info : Advanced Video Codec
Format profile : High@L3.1
Format settings : CABAC / 1 Ref Frames
Format settings, CABAC : Yes
Format settings, RefFrames : 1 frame
Format settings, GOP : M=1, N=30
Codec ID : V_MPEG4/ISO/AVC
Duration : 1 h 25 min
Bit rate : 2 865 kb/s
Width : 1 280 pixels
Height : 540 pixels
Display aspect ratio : 2.40:1
Frame rate mode : Constant
Frame rate : 23.976 (24000/1001) FPS
Color space : YUV
Chroma subsampling : 4:2:0
Bit depth : 8 bits
Scan type : Progressive
Bits/(Pixel*Frame) : 0.173
Stream size : 1.72 GiB (94%)
Language : English
Default : Yes
Forced : No
Audio
ID : 2
Format : AAC
Format/Info : Advanced Audio Codec
Format profile : LC
Codec ID : A_AAC-2
Duration : 1 h 25 min
Bit rate : 192 kb/s
Channel(s) : 2 channels
Channel positions : Front: L R
Sampling rate : 48.0 kHz
Frame rate : 46.875 FPS (1024 SPF)
Compression mode : Lossy
Stream size : 116 MiB (6%)
Language : English
Default : Yes
Forced : No

Внимание, имеется видео и аудио реклама от спонсора показа

Релиз от:



   Похожие торренты   Торрент   Размер 
В этой теме нет новых непрочитанных сообщений. Сокровище / Comoara (2015) HDTVRip | GreenРай Studio

39 | 0

1.34 ГБ

В этой теме нет новых непрочитанных сообщений. Роковое усыновление / A Deadly Adoption (2015) HDTVRip 720p | GreenРай Studio

11 | 0

2.2 ГБ

В этой теме нет новых непрочитанных сообщений. Бумеранг / Boomerang [S01] (2015) HDTVRip | GreenРай Studio

1 | 0

3.19 ГБ

В этой теме нет новых непрочитанных сообщений. Роковое усыновление / A Deadly Adoption (2015) HDTVRip | GreenРай Studio

7 | 0

1.37 ГБ

В этой теме нет новых непрочитанных сообщений. Подземное время / Les heures souterraines (2015) HDTVRip | GreenРай Studio

13 | 2

1.35 ГБ

В этой теме нет новых непрочитанных сообщений. Потеря и любовь / Shi gu (2015) HDRip 720p | GreenРай Studio

0 | 0

4.31 ГБ

В этой теме нет новых непрочитанных сообщений. Луна в двенадцатом доме / Yareach BeBayit 12 (2015) HDTVRip | GreenРай Studio

13 | 2

1.48 ГБ




Вы не можете начинать темы
Вы не можете отвечать на сообщения
Вы не можете редактировать свои сообщения
Вы не можете удалять свои сообщения
Вы не можете добавлять вложения

Перейти:  
 Вход
ppkBB3cker v.2 © 2008-2014 @ PPK
[ Time : 0.028s | 16 Queries | GZIP : Off ]

cron