img image001 image001 image001 image001 image001 image001 image001 image001 image001 image001 image001 image001 image001 image001 image001 image001

Planets Sun Sun Sun
Статистика раздачи
Автор: Снежана | Размер: 25.81 ГБ | Добавлен: 15 авг 2018
Раздают: 7    Качают: 12
Скачать торрент
Скачать торрент
Описание торрента

СообщениеДобавлено: 15 авг 2018 

Искушение / Радуга любви (1-2 сезоны 1-22 серии из 48)

Перевод: Не требуется, cубтитры: отсутствуют
Формат: HDTVRip 720p, MKV, H.264, AC3
Страна: Украина
Режиссер: Игорь Забара, Сергей Терещук
Жанр: мелодрама
Всего серий: 48
Продолжительность: 22 х 00:44:00
Год выпуска: 2018

В ролях: Иван Колесников, Дарья Легейда, Ксения Мишина, Ольга Сумская, Валерий Афанасьев, Евгений Воловенко, Елена Турбал, Игорь Рубашкин, Тамара Морозова, Мила Сивацкая, Владимир Виноградов, Тамара Антропова, Алексей Череватенко, Владимир Пшеничный, Ирина Калашникова, Дмитрий Мухин, Андрей Мостренко, Полина Василина, Алексей Нагрудный, Мария Тарасова (II), Александра Сизоненко, Михаил Есьман, Игорь Портянко, Павел Текучев, Виталий Салий, Александр Олексенко, Вячеслав Довженко, Игорь Денисов

Описание: Главный герой истории – яркий и успешный Женя Ханжонков, помощник влиятельного бизнесмена Кумачева. Никто не знает, что все мысли и действия Жени имеют четкую цель, и это – месть. Однажды в доме Кумачева он встречает свою бывшую любовь Инну, с этого момента его жизнь кардинально меняется. Впрочем, у девушки нет времени на развлечения и увлечения: ей приходится много работать, ведь у нее – маленький ребенок. Несмотря на непростую судьбу, у Инны полно завистников, в том числе – дочь олигарха Камилла, которая влюблена в Женю. Образуется любовный треугольник. И каждому из его участников есть что скрывать…

Рейтинг и доп. информация:


Видео: 1280х720 (16:9), 25 fps, AVC MPEG-4 (x264), ~ 4000 kbps , 0.174 bit/pixel
Аудио: 48 kHz, АС3, 2/0 (L,R), ~192.00 kbps avg
Внимание! Раздача ведётся путём добавления новых серий. При каждом добавлении создаётся новый торрент.
Чтобы начать докачку новой серии, пользователям необходимо сделать следующее:
1. Остановить скачивание.
2. Удалить старый торрент у себя из клиента (старые серии удалять не надо).
3. Скачать новый торрент и запустить его у себя в клиенте вместо старого, при этом указать клиенту путь в старую папку куда и должно происходить скачивание новых серий. Ваш клиент при этом должен произвести хеширование (проверку) старой папки и будет докачивать только те серии, которых у вас ещё нет. Старые серии при этом не удаляются, а продолжают раздаваться! Eсли вы уже удалили старые серии, то предотвратить повторную закачку старых серий можно, отжав галочку в соответствующих местах при запуске нового торрента.


Общее
Уникальный идентификатор : 217762235070252153642372848500922835174 (0xA3D37B1E166794FCA2CDAA76F6F2E0E6)
Полное имя : C:\Iskuchenie.2017.HDTVRip.(720p).Nikolspup\Iskuchenie.(01.seriya).2017.HDTVRip.(720p).Nikolspup.mkv
Формат : Matroska
Версия формата : Version 4 / Version 2
Размер файла : 1,14 Гбайт
Продолжительность : 38 м. 56 с.
Общий поток : 4194 Кбит/сек
Дата кодирования : UTC 2018-08-07 06:56:25
Программа кодирования : mkvmerge v7.8.0 ('River Man') 32bit built on Mar 27 2015 16:18:02
Библиотека кодирования : libebml v1.3.1 + libmatroska v1.4.2

Видео
Идентификатор : 1
Формат : AVC
Формат/Информация : Advanced Video Codec
Профиль формата :
Настройки формата : CABAC / 9 Ref Frames
Параметр CABAC формата : Да
Параметр RefFrames формата : 9 кадров
Идентификатор кодека : V_MPEG4/ISO/AVC
Продолжительность : 38 м. 56 с.
Битрейт : 4000 Кбит/сек
Ширина : 1280 пикселей
Высота : 720 пикселей
Соотношение сторон : 16:9
Режим частоты кадров : Постоянный
Частота кадров : 25,000 кадров/сек
Цветовое пространство : YUV
Субдискретизация насыщенности : 4:2:0
Битовая глубина : 8 бит
Тип развёртки : Прогрессивная
Бит/(Пиксели*Кадры) : 0.174
Размер потока : 1,07 Гбайт (93%)
Библиотека кодирования : x264 core 146 r2538 121396c
Настройки программы : cabac=1 / ref=9 / deblock=1:-2:-1 / analyse=0x3:0x133 / me=umh / subme=9 / psy=1 / psy_rd=1.00:0.20 / mixed_ref=1 / me_range=32 / chroma_me=1 / trellis=2 / 8x8dct=1 / cqm=0 / deadzone=21,11 / fast_pskip=1 / chroma_qp_offset=-3 / threads=16 / lookahead_threads=8 / sliced_threads=0 / nr=0 / decimate=1 / interlaced=0 / bluray_compat=0 / constrained_intra=0 / bframes=11 / b_pyramid=2 / b_adapt=2 / b_bias=0 / direct=1 / weightb=1 / open_gop=0 / weightp=2 / keyint=250 / keyint_min=25 / scenecut=40 / intra_refresh=0 / rc=2pass / mbtree=0 / bitrate=4000 / ratetol=1.0 / qcomp=0.60 / qpmin=0 / qpmax=69 / qpstep=4 / cplxblur=20.0 / qblur=0.5 / ip_ratio=1.40 / pb_ratio=1.30 / aq=3:1.00
Default : Нет
Forced : Нет
Цветовой диапазон : Limited
Основные цвета : BT.709
Характеристики трансфера : BT.709
Коэффициенты матрицы : BT.709

Аудио
Идентификатор : 2
Формат : AC-3
Формат/Информация : Audio Coding 3
Идентификатор кодека : A_AC3
Продолжительность : 38 м. 56 с.
Вид битрейта : Постоянный
Битрейт : 192 Кбит/сек
Каналы : 2 канала
Расположение каналов : Front: L R
Частота : 48,0 КГц
Частота кадров : 31,250 кадров/сек (1536 SPF)
Битовая глубина : 16 бит
Метод сжатия : С потерями
Размер потока : 53,5 Мбайт (5%)
Язык : Russian
ServiceKind/String : Complete Main
Default : Да
Forced : Да








   Похожие торренты   Торрент   Размер 
В этой теме нет новых непрочитанных сообщений. Искушение / Радуга любви (1-2 сезоны 1-16 серии из 48) (Игорь Забара, Сергей Терещук) [2018, мелодрама, HDTVRip 720p]

7 | 0

18.58 ГБ

В этой теме нет новых непрочитанных сообщений. Искушение / Радуга любви (1-2 сезоны 1-26 серии из 48) (Игорь Забара, Сергей Терещук) [2018, мелодрама, HDTVRip 720p]

11 | 5

30.69 ГБ

В этой теме нет новых непрочитанных сообщений. Искушение / Радуга любви (1-2 сезоны 1-22 серии из 48) (Игорь Забара, Сергей Терещук) [2018, мелодрама, HDTVRip]

0 | 0

11.7 ГБ

В этой теме нет новых непрочитанных сообщений. Искушение / Радуга любви (1-2 сезоны 1-29 серии из 48) (Игорь Забара, Сергей Терещук) [2017, мелодрама, HDTVRip 720p]

28 | 19

34.68 ГБ

В этой теме нет новых непрочитанных сообщений. Искушение / Радуга любви (1-2 сезоны 1-41 серии из 41) (Игорь Забара, Сергей Терещук) [2017, мелодрама, HDTVRip 720p]

13 | 30

49.1 ГБ

В этой теме нет новых непрочитанных сообщений. Искушение / Радуга любви (1-2 сезоны 1-38 серии из 41) (Игорь Забара, Сергей Терещук) [2017, мелодрама, HDTVRip 720p]

1 | 1

45.5 ГБ

В этой теме нет новых непрочитанных сообщений. Искушение / Радуга любви (1-2 сезоны 1-32 серии из 48) (Игорь Забара, Сергей Терещук) [2017, мелодрама, HDTVRip 720p]

5 | 3

38.34 ГБ




Вы не можете начинать темы
Вы не можете отвечать на сообщения
Вы не можете редактировать свои сообщения
Вы не можете удалять свои сообщения
Вы не можете добавлять вложения

Перейти:  
 Вход
ppkBB3cker v.2 © 2008-2014 @ PPK
[ Time : 0.028s | 18 Queries | GZIP : Off ]

cron