img image001 image001 image001 image001 image001 image001 image001 image001 image001 image001 image001 image001 image001 image001 image001 image001

Planets Sun Sun Sun
Статистика раздачи
Автор: Снежана | Размер: 13.87 ГБ | Добавлен: 16 авг 2018
Раздают: 5    Качают: 10
Скачать торрент
Скачать торрент
Описание торрента

СообщениеДобавлено: 16 авг 2018 

Любовь по приказу (1-6 серии из 8)

Перевод: Не требуется, cубтитры: отсутствуют
Формат: HDTV 1080i, MPEG-TS, H.264, AC3/MP2
Страна: Россия
Режиссер: Николай Борц
Жанр: мелодрама
Всего серий: 8
Продолжительность: 6 х ~ 00:50:00
Год выпуска: 2016

В ролях: Полина Сыркина, Александр Мохов, Артём Быстров, Сергей Барковский, Юлия Шиферштейн, Валерий Панков, Ёла Санько, Марина Куделинская, Владимир Гусев (II), Евгения Дмитриева, Игорь Ветров (II), Данила Перов, Александр Ермаков, Стасс Классен, Александр Бобров (IV), Дмитрий Гусев, Александр Базоев, Роман Индык, Татьяна Весёлкина, Андрей Дудников, Геннадий Семёнов, Сергей Климов, Марина Яковлева (II), Татьяна Журавлева (II), Алексей Гущин

Описание: Действия сериала «Любовь по приказу» переносят своего зрителя в 1988 год. Главная героиня – талантливая и молодая актриса. Каждый день с большим нетерпением ее возвращения домой ожидают сын и любимый супруг. Варвара по-настоящему счастлива и искренне верит, что так будет всегда. Случайно на один из ее спектаклей попадает известный режиссер, который приглашает актрису к себе в театр. Героиня принимает приглашение. В один момент весь мир, в котором жила Варвара, рушится. Происходит это после того, как ее супруг на глазах жены погибает. После его похорон выясняется, что мужчина в ближайшее время планировал покинуть страну вместе со всей своей семьей и переехать жить за границу, прихватив с собой ценные документы. Варя даже предположить не могла, что ее любимый был на это способен и не догадывалась о переезде. Однако КГБ было известно об этих планах и теперь Варя находится под подозрением.

Рейтинг и доп. информация:


Видео: 1920х1080, (16:9), 25 fps, AVC MPEG-TS (x264), High@L4 ~ 6500 kbps avg, 0.126 bit/pixel
Аудио #1: Русский: 48 kHz, AC3 Dolby Digital, 3/2 (L,C,R,l,r) + LFE ch, ~384.00 kbps avg
Аудио #2: Русский: 48 kHz, MPEG Layer 2, 2 ch, ~192.00 kbps avg
Внимание! Раздача ведётся путём добавления новых серий. При каждом добавлении создаётся новый торрент.
Чтобы начать докачку новой серии, пользователям необходимо сделать следующее:
1. Остановить скачивание.
2. Удалить старый торрент у себя из клиента (старые серии удалять не надо).
3. Скачать новый торрент и запустить его у себя в клиенте вместо старого, при этом указать клиенту путь в старую папку куда и должно происходить скачивание новых серий. Ваш клиент при этом должен произвести хеширование (проверку) старой папки и будет докачивать только те серии, которых у вас ещё нет. Старые серии при этом не удаляются, а продолжают раздаваться! Eсли вы уже удалили старые серии, то предотвратить повторную закачку старых серий можно, отжав галочку в соответствующих местах при запуске нового торрента.


Общее
Идентификатор : 1 (0x1)
Полное имя : C:\Ljubov po prikazu.HDTV(1080i).GeneralFilm\01.Ljubov po prikazu.HDTV(1080i).GeneralFilm.ts
Формат : MPEG-TS
Размер файла : 2,60 Гбайт
Продолжительность : 49 м. 53 с.
Режим общего битрейта : Переменный
Общий поток : 7463 Кбит/сек

Видео
Идентификатор : 2931 (0xB73)
Идентификатор меню : 1079 (0x437)
Формат : AVC
Формат/Информация : Advanced Video Codec
Профиль формата : High@L4
Настройки формата : CABAC / 4 Ref Frames
Параметр CABAC формата : Да
Параметр RefFrames формата : 4 кадра
Идентификатор кодека : 27
Продолжительность : 49 м. 53 с.
Битрейт : 6500 Кбит/сек
Ширина : 1920 пикселей
Высота : 1080 пикселей
Соотношение сторон : 16:9
Частота кадров : 25,000 кадров/сек
Цветовое пространство : YUV
Субдискретизация насыщенности : 4:2:0
Битовая глубина : 8 бит
Тип развёртки : MBAFF
Метод сохранения типа развёртки : Чередующиеся поля
Порядок развёртки : Верхнее поле первое
Бит/(Пиксели*Кадры) : 0.126
Размер потока : 2,27 Гбайт (87%)

Аудио #1
Идентификатор : 2913 (0xB61)
Идентификатор меню : 1079 (0x437)
Формат : AC-3
Формат/Информация : Audio Coding 3
Идентификатор кодека : 129
Продолжительность : 49 м. 53 с.
Вид битрейта : Постоянный
Битрейт : 384 Кбит/сек
Каналы : 6 каналов
Расположение каналов : Front: L C R, Side: L R, LFE
Частота : 48,0 КГц
Частота кадров : 31,250 кадров/сек (1536 SPF)
Битовая глубина : 16 бит
Метод сжатия : С потерями
Задержка видео : -160 мс.
Размер потока : 137 Мбайт (5%)
Язык : Russian
ServiceKind/String : Complete Main

Аудио #2
Идентификатор : 2914 (0xB62)
Идентификатор меню : 1079 (0x437)
Формат : MPEG Audio
Версия формата : Version 1
Профиль формата : Layer 2
Настройки формата : Joint stereo / Intensity Stereo + MS Stereo
Идентификатор кодека : 3
Продолжительность : 49 м. 53 с.
Вид битрейта : Постоянный
Битрейт : 192 Кбит/сек
Каналы : 2 канала
Частота : 48,0 КГц
Частота кадров : 41,667 кадра/сек (1152 SPF)
Метод сжатия : С потерями
Задержка видео : -160 мс.
Размер потока : 68,5 Мбайт (3%)
Язык : Russian








   Похожие торренты   Торрент   Размер 
В этой теме нет новых непрочитанных сообщений. Любовь по приказу (1-4 серии из 8) (Николай Борц) [2016, мелодрама, HDTV 1080i]

12 | 16

8.59 ГБ

В этой теме нет новых непрочитанных сообщений. Любовь по приказу (1-8 серии из 8) (Николай Борц) [2016, мелодрама, HDTV 1080i]

14 | 4

17.82 ГБ

В этой теме нет новых непрочитанных сообщений. Любовь по приказу (1-6 серии из 8) / (Николай Борц) [2016, мелодрама, HDTVRip-AVC]

2 | 4

4.58 ГБ

В этой теме нет новых непрочитанных сообщений. Любовь по приказу (1-8 серии из 8) / (Николай Борц) [2016, мелодрама, HDTVRip-AVC]

35 | 18

6.13 ГБ

В этой теме нет новых непрочитанных сообщений. Любовь по приказу (1-8 серии из 8) (Николай Борц) [2016, мелодрама, WEB-DL 1080p]

8 | 1

13.89 ГБ

В этой теме нет новых непрочитанных сообщений. Любовь по приказу (1-8 серии из 8) (Николай Борц) [2016, мелодрама, WEB-DL 720p]

21 | 5

9.36 ГБ

В этой теме нет новых непрочитанных сообщений. Любовь по приказу (1-8 серии из 8) (Николай Борц) [2016, мелодрама, WEB-DLRip]

60 | 3

4.83 ГБ




Вы не можете начинать темы
Вы не можете отвечать на сообщения
Вы не можете редактировать свои сообщения
Вы не можете удалять свои сообщения
Вы не можете добавлять вложения

Перейти:  
 Вход
ppkBB3cker v.2 © 2008-2014 @ PPK
[ Time : 0.192s | 17 Queries | GZIP : Off ]

cron