img image001 image001 image001 image001 image001 image001 image001 image001 image001 image001 image001 image001 image001 image001 image001 image001

Planets Sun Sun Sun
Статистика раздачи
Автор: Снежана | Размер: 588.19 МБ | Добавлен: 16 авг 2018
Раздают: 1    Качают: 0
Скачать торрент
Скачать торрент
Описание торрента

СообщениеДобавлено: 16 авг 2018 

Злой мозг из далекого космоса / Evil Brain From Outer Space


Перевод: Любительский (одноголосый), субтитры: отсутствуют
Формат: DVDRip, AVI, XviD, MP3
Страна: США / Япония
Режиссер: Тэуро Иший, Акира Митсува, Кореёши Акасака
Жанр: Фантастика, Приключения, Семейный
Продолжительность: 01:05:22
Год выпуска: 1964

В ролях: Кен Ютсуй, Сачихира Ошава, Джунко Икеючи, Теруми Хоси и др.
Описание: Вселенная в опасности! Злой гений Балазар после своей смерти не оставляет планов по завоеванию всего Мира, поскольку его мозг жив (несмотря на то, что тело мертво). И первой целью захватчиков станет Земля.
Но кроме злых инопланетян есть и добрые, так инопланетный супер-герой Стармен командируется на Землю для борьбы с Балазаровым мозгом и его приспешниками.

Доп. информация: Фильм является американской копией японского сериала о Стальном гиганте



Видео: 960x720 (4:3), 24fps, Xvid MPEG-4 ~1 105 kbps, 0.067 bit/pixel
Аудио: 48.0 kHz, MPEG Layer 3, 2 ch ~128 kbps


General
Unique ID : 185078057993506051985565742551090273170 (0x8B3CBCC5D8491DBE8FC1A6391BB31B92)
Complete name : Evil Brain from Outer Space.avi
File size : 588 MiB
Duration : 1h 5mn
Overall bit rate : 1 258 Kbps
Encoded date : UTC 2015-09-26 10:03:22
Writing application : mkvmerge v7.8.0 ('River Man') 32bit built on Mar 27 2015 16:18:02
Writing library : libebml v1.3.1 + libmatroska v1.4.2
DURATION : 01:05:22.459000000
NUMBER_OF_FRAMES : 94139
NUMBER_OF_BYTES : 553003291
Video #1
ID : 1
Format : MPEG-4 Visual
Format profile : Simple@L3
Format settings, BVOP : No
Format settings, QPel : No
Format settings, GMC : No warppoints
Format settings, Matrix : Default (H.263)
Codec ID : XVID
Codec ID/Hint : XviD
Duration : 1h 5mn
Bit rate : 1 105 Kbps
Width : 960 pixels
Height : 720 pixels
Display aspect ratio : 4:3
Frame rate : 24.000 fps
Color space : YUV
Chroma subsampling : 4:2:0
Bit depth : 8 bits
Scan type : Progressive
Compression mode : Lossy
Bits/(Pixel*Frame) : 0.067
Stream size : 517 MiB (88%)
Writing library : XviD 1.2.1 (UTC 2008-12-04)
Language : Russian
Default : Yes
Forced : No
Audio #2
ID : 2
Format : MPEG Audio
Format version : Version 1
Format profile : Layer 3
Mode : Joint stereo
Mode extension : MS Stereo
Codec ID : A_MPEG/L3
Codec ID/Hint : MP3
Duration : 1h 5mn
Bit rate mode : Constant
Bit rate : 128 Kbps
Channel(s) : 2 channels
Sampling rate : 48.0 KHz
Compression mode : Lossy
Stream size : 59.9 MiB (10%)
Writing library : LAME3.98.2
Default : Yes
Forced : No









   Похожие торренты   Торрент   Размер 
В этой теме нет новых непрочитанных сообщений. Геи-ниггеры из далекого космоса / Gayniggers from Outer Space (Мортен Линдберг/Morten Lindberg) [1992, короткометражка, фантастика, комедия, DVDRip]

2 | 0

172.12 МБ

В этой теме нет новых непрочитанных сообщений. Кровососы из далекого космоса / Blood Suckers from Outer Space (Глен Коберн) [1984, фантастика, ужасы, чёрная комедия, DVDRip] VO

4 | 0

551.42 МБ

В этой теме нет новых непрочитанных сообщений. Пришельцы в доме / Luis and His Friends from Outer Space (Кристоф Лауэнштайн, Вольфганг Лауэнштайн, Шон МакКормак) [2018, мультфильм, фантастика, комедия, приключения, семейный, WEBDLRip]DUB

443 | 14

1.37 ГБ

В этой теме нет новых непрочитанных сообщений. Кот из космоса / The Cat from Outer Space (1978) DVDRip | L2

48 | 5

1.45 ГБ

В этой теме нет новых непрочитанных сообщений. Королева космоса / Queen of Outer Space (1958) DVDRip

177 | 23

1.37 ГБ

В этой теме нет новых непрочитанных сообщений. Они сохранили мозг Гитлера / They Saved Hitler's Brain (Дэвид Брэдли) [1968, фантастика, DVDRip] VO

6 | 0

694.41 МБ

В этой теме нет новых непрочитанных сообщений. Кот из космоса / The Cat from Outer Space (1978) WEBRip от Koenig | L2

0 | 0

1.45 ГБ




Вы не можете начинать темы
Вы не можете отвечать на сообщения
Вы не можете редактировать свои сообщения
Вы не можете удалять свои сообщения
Вы не можете добавлять вложения

Перейти:  
 Вход
ppkBB3cker v.2 © 2008-2014 @ PPK
[ Time : 0.029s | 16 Queries | GZIP : Off ]

cron