img image001 image001 image001 image001 image001 image001 image001 image001 image001 image001 image001 image001 image001 image001 image001 image001

Planets Sun Sun Sun
Статистика раздачи
Автор: Снежана | Размер: 2.11 ГБ | Добавлен: 20 авг 2018
Раздают: 4    Качают: 0
Скачать торрент
Скачать торрент
Описание торрента

СообщениеДобавлено: 20 авг 2018 

Темная Вселенная / Темная лига справедливости / Justice League Dark

Слоган: «У каждого супергероя своя темная сторона…»

Перевод: Профессиональный (дублированный) [SDI Media], Любительский (многоголосый, закадровый) [Cтудия Saint-Sound.TV], Любительский (многоголосый, закадровый) [Shadow Dub]
Субтитры: русские, английские [вшитые отключаемые]
Формат: BDRip-AVC, MKV, H.264, AC3
Страна: США
Режиссер: Джей Олива
Жанр: мультфильм, ужасы, фантастика, фэнтези, боевик
Продолжительность: 01:15:50
Год выпуска: 2017
В ролях: Мэтт Райан, Камилла Ладдингтон, Джейсон О’Мара, Рэй Чейз, Энрико Колантони, Роджер Р. Кросс, Джереми Дэвис, Розарио Доусон, Брайан Т. Делани, Альфред Молина

Описание: О команде нетипичных и не внушающих доверия супергероев, живых воплощений всех верований оккультизма. Темные маги, монстры, демоны и призраки объединятся под началом знаменитого детектива-медиума Джона Константина, чтобы потягаться со столь же могущественными силами.



Видео: 1024x568 (16:9), 23.976 fps, AVC MPEG-4 (H.264), ~2600 kbps, 0.186 bit/pixel
Аудио #1: Русский: 48 kHz, AC3 Dolby Digital, 3/2 (L,C,R,l,r) + LFE ch, ~448 kbps [Профессиональный (полное дублированние) [Shadow Dub]]
Аудио #2: Русский: 48 kHz, AC3 Dolby Digital, 2/0 (L,R) ch, ~256 kbps [Любительский (многоголосый, закадровый) [Cтудия Saint-Sound.TV]]
Аудио #3: Русский: 48 kHz, AC3 Dolby Digital, 2/0 (L,R) ch, ~384 kbps [Любительский (многоголосый, закадровый) [Shadow Dub]]
Аудио #4: Английский: 48 kHz, AC3 Dolby Digital, 2/0 (L,R) ch, ~256 kbps [Оригинал]



Общее
Уникальный идентификатор : 55390741010152650887175156299836233353 (0x29ABDE6181902E41574DBCCA2DA51689)
Полное имя : F:\Диск\04. МУЛЬТФИЛЬМЫ\Темная Вселенная Темная лига справедливости Justice League Dark 2017\Justice.League.Dark (2017).mkv
Формат : Matroska
Версия формата : Version 4 / Version 2
Размер файла : 2,11 Гбайт
Продолжительность : 1 ч. 15 м.
Общий поток : 3974 Кбит/сек
Программа кодирования : XviD4PSP 7.0.455 DAILY
Библиотека кодирования : Lavf57.71.100
Примечание : Rip by Basma4i&TorrNADO
ErrorDetectionType : Per level 1
ENCODING_INFO : MATROSKA,WEBM > MKV Пользовательский / MPEG4 > X264 ABR 2600kbps HQ / AC3 > AC3 CBR 448kbps / AC3 > AC3 CBR 256kbps / AC3 > AC3 CBR 384kbps / AC3 > AC3 CBR 256kbps

Видео
Идентификатор : 1
Формат : AVC
Формат/Информация : Advanced Video Codec
Профиль формата :
Настройки формата : CABAC / 9 Ref Frames
Параметр CABAC формата : Да
Параметр RefFrames формата : 9 кадров
Идентификатор кодека : V_MPEG4/ISO/AVC
Продолжительность : 1 ч. 15 м.
Битрейт : 2600 Кбит/сек
Ширина : 1024 пикселя
Высота : 568 пикселей
Соотношение сторон : 16:9
Режим частоты кадров : Постоянный
Частота кадров : 23,976 (24000/1001) кадра/сек
Цветовое пространство : YUV
Субдискретизация насыщенности : 4:2:0
Битовая глубина : 8 бит
Тип развёртки : Прогрессивная
Бит/(Пиксели*Кадры) : 0.186
Размер потока : 1,35 Гбайт (64%)
Библиотека кодирования : x264 core 155 r2901M 7d0ff22
Настройки программы : cabac=1 / ref=9 / deblock=1:-3:-3 / analyse=0x3:0x133 / me=umh / subme=9 / psy=1 / psy_rd=1.00:0.20 / mixed_ref=1 / me_range=32 / chroma_me=1 / trellis=2 / 8x8dct=1 / cqm=0 / deadzone=21,11 / fast_pskip=1 / chroma_qp_offset=-3 / threads=10 / lookahead_threads=1 / sliced_threads=0 / nr=0 / decimate=1 / interlaced=0 / bluray_compat=0 / constrained_intra=0 / bframes=8 / b_pyramid=2 / b_adapt=1 / b_bias=8 / direct=1 / weightb=1 / open_gop=0 / weightp=1 / keyint=240 / keyint_min=24 / scenecut=40 / intra_refresh=0 / rc_lookahead=40 / rc=abr / mbtree=1 / bitrate=2600 / ratetol=1.0 / qcomp=0.60 / qpmin=0 / qpmax=69 / qpstep=4 / ip_ratio=1.40 / aq=1:1.00
Язык : English
Default : Да
Forced : Нет
Цветовой диапазон : Limited
Основные цвета : BT.709
Характеристики трансфера : BT.709
Коэффициенты матрицы : BT.709

Аудио #1
Идентификатор : 2
Формат : AC-3
Формат/Информация : Audio Coding 3
Идентификатор кодека : A_AC3
Продолжительность : 1 ч. 15 м.
Вид битрейта : Постоянный
Битрейт : 448 Кбит/сек
Каналы : 6 каналов
Расположение каналов : Front: L C R, Side: L R, LFE
Частота : 48,0 КГц
Частота кадров : 31,250 кадров/сек (1536 SPF)
Битовая глубина : 16 бит
Метод сжатия : С потерями
Размер потока : 243 Мбайт (11%)
Заголовок : SDI Media
Язык : Russian
ServiceKind/String : Complete Main
Default : Да
Forced : Нет

Аудио #2
Идентификатор : 3
Формат : AC-3
Формат/Информация : Audio Coding 3
Идентификатор кодека : A_AC3
Продолжительность : 1 ч. 15 м.
Вид битрейта : Постоянный
Битрейт : 256 Кбит/сек
Каналы : 2 канала
Расположение каналов : Front: L R
Частота : 48,0 КГц
Частота кадров : 31,250 кадров/сек (1536 SPF)
Битовая глубина : 16 бит
Метод сжатия : С потерями
Размер потока : 139 Мбайт (6%)
Заголовок : Saint-Sound.TV
Язык : Russian
ServiceKind/String : Complete Main
Default : Нет
Forced : Нет

Аудио #3
Идентификатор : 4
Формат : AC-3
Формат/Информация : Audio Coding 3
Идентификатор кодека : A_AC3
Продолжительность : 1 ч. 15 м.
Вид битрейта : Постоянный
Битрейт : 384 Кбит/сек
Каналы : 2 канала
Расположение каналов : Front: L R
Частота : 48,0 КГц
Частота кадров : 31,250 кадров/сек (1536 SPF)
Битовая глубина : 16 бит
Метод сжатия : С потерями
Размер потока : 208 Мбайт (10%)
Заголовок : Shadow Dub
Язык : Russian
ServiceKind/String : Complete Main
Default : Нет
Forced : Нет

Аудио #4
Идентификатор : 5
Формат : AC-3
Формат/Информация : Audio Coding 3
Идентификатор кодека : A_AC3
Продолжительность : 1 ч. 15 м.
Вид битрейта : Постоянный
Битрейт : 256 Кбит/сек
Каналы : 2 канала
Расположение каналов : Front: L R
Частота : 48,0 КГц
Частота кадров : 31,250 кадров/сек (1536 SPF)
Битовая глубина : 16 бит
Метод сжатия : С потерями
Размер потока : 139 Мбайт (6%)
Заголовок : Original
Язык : English
ServiceKind/String : Complete Main
Default : Нет
Forced : Нет

Текст #1
Идентификатор : 6
Формат : UTF-8
Идентификатор кодека : S_TEXT/UTF8
Идентификатор кодека/Информация : UTF-8 Plain Text
Язык : Russian
Default : Да
Forced : Нет

Текст #2
Идентификатор : 7
Формат : UTF-8
Идентификатор кодека : S_TEXT/UTF8
Идентификатор кодека/Информация : UTF-8 Plain Text
Язык : English
Default : Нет
Forced : Нет









   Похожие торренты   Торрент   Размер 
В этой теме нет новых непрочитанных сообщений. Лига справедливости: Парадокс источника конфликта / Justice League: The Flashpoint Paradox (Джей Олива) [2013, мультфильм, фантастика, фэнтези, боевик, приключения, BDRip 720p] MVO / Marvel

94 | 17

2.43 ГБ

В этой теме нет новых непрочитанных сообщений. Темная Вселенная / Темная лига справедливости / Justice League Dark (2017) BDRip от rs.bandito | L

116 | 5

1.48 ГБ

В этой теме нет новых непрочитанных сообщений. Темная Вселенная / Тёмная Лига Справедливости / Justice League Dark (2017) BDRip 720р | Shadow Dub

233 | 10

2.66 ГБ

В этой теме нет новых непрочитанных сообщений. Темная Вселенная / Тёмная Лига Справедливости / Justice League Dark (2017) BDRemux 1080p от CasStudio | D

44 | 7

10.61 ГБ

В этой теме нет новых непрочитанных сообщений. Тёмная Лига Справедливости / Justice League Dark (2017) WEBRip 720p | ZM-SHOW

35 | 0

839.33 МБ

В этой теме нет новых непрочитанных сообщений. Лига справедливости / Justice League (Зак Снайдер) [2017, фантастика, фэнтези, боевик, приключения, BDRip] DUB / Фантастика

380 | 10

1.46 ГБ

В этой теме нет новых непрочитанных сообщений. Лига справедливости / Justice League (Зак Снайдер) [2017, фантастика, фэнтези, боевик, приключения, BDRip] AVO

4 | 0

2.06 ГБ




Вы не можете начинать темы
Вы не можете отвечать на сообщения
Вы не можете редактировать свои сообщения
Вы не можете удалять свои сообщения
Вы не можете добавлять вложения

Перейти:  
 Вход
ppkBB3cker v.2 © 2008-2014 @ PPK
[ Time : 0.030s | 15 Queries | GZIP : Off ]

cron