img image001 image001 image001 image001 image001 image001 image001 image001 image001 image001 image001 image001 image001 image001 image001 image001

Planets Sun Sun Sun
Статистика раздачи
Автор: Снежана | Размер: 2.9 ГБ | Добавлен: 20 авг 2018
Раздают: 3    Качают: 5
Скачать торрент
Скачать торрент
Описание торрента

СообщениеДобавлено: 20 авг 2018 

Слезы солнца [Режиссерская версия] / Tears of the Sun [Director's Cut]

Перевод: Профессиональный (полное дублирование)
Субтитры: Отсутствуют
Формат: DVDRip-AVC, MKV, H.264, AC3
Страна: США
Режиссер: Антуан Фукуа
Жанр: боевик, триллер, драма, военный
Продолжительность: 02:22:23
Год выпуска: 2003

В ролях: Брюс Уиллис, Моника Беллуччи, Коул Хаузер, Имонн Уолкер, Джонни Месснер, Ник Чинланд, Чарльз Ингрэм, Пол Френсис, Чад Смит

Описание: Команда по выполнению спецопераций особой сложности послана в джунгли, в самое сердце Нигерии. Задача отважных ребят — разыскать и освободить из плена врача (Моника Беллуччи). Когда они находят несчастную женщину в забытой богом деревеньке, выясняется, что характер операции надо срочно менять: врач заявляет, что покинет джунгли, только если вместе с ней спецбригада прихватит еще 70 человек беженцев.



Видео: 720x358@853x358 (2.40:1), 23.976 fps, AVC MPEG-4 (H.264), ~1572 kbps, 0.255 bit/pixel
Аудио #1: Русский: 48 kHz, AC3 Dolby Digital, 6 ch, ~448 kbps [Авторский (одноголосый)] А. Гаврилов
Аудио #2: Русский: 48 kHz, AC3 Dolby Digital, 6 ch, ~448 kbps [Авторский (одноголосый)] В. Королев
Аудио #3: Английский: 48 kHz, AC3 Dolby Digital, 6 ch, ~448 kbps [Оригинал]

Format : Matroska
Format version : Version 2
File size : 2.90 GiB
Duration : 2h 22mn
Overall bit rate : 2 919 Kbps
Movie name : Слезы солнца / Tears of the Sun (2003) Director's Cut, DVDRip-AVC
Encoded date : UTC 2012-06-08 10:46:07
Writing application : mkvmerge v5.6.0 ('Kenya Kane') built on May 27 2012 16:44:04
Writing library : libebml v1.2.3 + libmatroska v1.3.0
Attachment : Yes
Video
ID : 1
Format : AVC
Format/Info : Advanced Video Codec
Format profile :
Format settings, CABAC : Yes
Format settings, ReFrames : 11 frames
Codec ID : V_MPEG4/ISO/AVC
Duration : 2h 22mn
Bit rate : 1 572 Kbps
Width : 720 pixels
Height : 358 pixels
Display aspect ratio : 2.40:1
Frame rate : 23.976 fps
Color space : YUV
Chroma subsampling : 4:2:0
Bit depth : 8 bits
Scan type : Progressive
Bits/(Pixel*Frame) : 0.254
Stream size : 1.51 GiB (52%)
Writing library : x264 core 122 r2184 5c85e0a
Encoding settings : cabac=1 / ref=11 / deblock=1:-1:-1 / analyse=0x3:0x113 / me=umh / subme=9 / psy=1 / psy_rd=1.00:0.10 / mixed_ref=1 / me_range=32 / chroma_me=1 / trellis=2 / 8x8dct=1 / cqm=0 / deadzone=21,11 / fast_pskip=0 / chroma_qp_offset=-3 / threads=6 / sliced_threads=0 / nr=0 / decimate=1 / interlaced=0 / bluray_compat=0 / constrained_intra=0 / bframes=10 / b_pyramid=2 / b_adapt=2 / b_bias=0 / direct=1 / weightb=1 / open_gop=0 / weightp=2 / keyint=240 / keyint_min=23 / scenecut=40 / intra_refresh=0 / rc=2pass / mbtree=0 / bitrate=1572 / ratetol=1.0 / qcomp=0.75 / qpmin=0 / qpmax=69 / qpstep=4 / cplxblur=20.0 / qblur=0.5 / ip_ratio=1.40 / pb_ratio=1.30 / aq=2:1.00 / zones=193230,204829,b=0.35
Language : English
Default : Yes
Forced : No
Audio #1
ID : 2
Format : AC-3
Format/Info : Audio Coding 3
Mode extension : CM (complete main)
Codec ID : A_AC3
Duration : 2h 22mn
Bit rate mode : Constant
Bit rate : 448 Kbps
Channel(s) : 6 channels
Channel positions : Front: L C R, Side: L R, LFE
Sampling rate : 48.0 KHz
Bit depth : 16 bits
Compression mode : Lossy
Stream size : 456 MiB (15%)
Title : AC3, 5.1 ch, 448 Kbps - AVO (Gavrilov)
Language : Russian
Default : Yes
Forced : No
Audio #2
ID : 3
Format : AC-3
Format/Info : Audio Coding 3
Mode extension : CM (complete main)
Codec ID : A_AC3
Duration : 2h 22mn
Bit rate mode : Constant
Bit rate : 448 Kbps
Channel(s) : 6 channels
Channel positions : Front: L C R, Side: L R, LFE
Sampling rate : 48.0 KHz
Bit depth : 16 bits
Compression mode : Lossy
Stream size : 456 MiB (15%)
Title : AC3, 5.1 ch, 448 Kbps - AVO (Korolev)
Language : Russian
Default : No
Forced : No
Audio #3
ID : 4
Format : AC-3
Format/Info : Audio Coding 3
Mode extension : CM (complete main)
Codec ID : A_AC3
Duration : 2h 22mn
Bit rate mode : Constant
Bit rate : 448 Kbps
Channel(s) : 6 channels
Channel positions : Front: L C R, Side: L R, LFE
Sampling rate : 48.0 KHz
Bit depth : 16 bits
Compression mode : Lossy
Stream size : 456 MiB (15%)
Title : AC3, 5.1 ch, 448 Kbps - ENG (Original)
Language : English
Default : No
Forced : No
Menu
00:00:00.000 : en:Start
00:05:22.767 : en:Somewhere Off the Coast of Africa
00:11:05.701 : en:Lt. Waters' Elite Squadron
00:14:16.768 : en:The Prime Objective
00:17:07.068 : en:St. Michael's Mission
00:22:10.936 : en:'I Will Not Leave Without My People.'
00:29:25.036 : en:Evacuating the Mission
00:38:21.403 : en:Danger on the Trail
00:45:10.237 : en:Cleansing the House of God
00:46:29.370 : en:Objective Accomplished
00:52:05.338 : en:Burn Down the Mission
00:54:17.072 : en:'We Can Only Take Twelve.'
01:00:37.105 : en:Possible Hostiles
01:07:57.105 : en:Ringside Seats to an Ethnic Cleansing
01:10:25.539 : en:Rule of Engagement Party
01:20:53.407 : en:'This Is What They Do.'
01:29:01.775 : en:Lena's Story
01:31:47.209 : en:'We Got Trouble.'
01:34:01.276 : en:A Rat in the Nest
01:36:53.576 : en:Arthur Azuka
01:43:55.043 : en:Doing the Right Thing
01:47:43.076 : en:Jungle Heat
01:51:41.944 : en:Slo Going Fast
01:54:40.711 : en:Under Attack
01:57:03.445 : en:'Hold the Line!'
01:58:44.379 : en:Run Through the Jungle
02:03:45.879 : en:'Let 'er Rip!!!'
02:08:01.046 : en:Promises Kept












   Похожие торренты   Торрент   Размер 
В этой теме нет новых непрочитанных сообщений. Слезы солнца / Tears of the Sun (Антуан Фукуа) [2003, боевик, триллер, драма, военный, BDRip] AVO

1 | 0

1.47 ГБ

В этой теме нет новых непрочитанных сообщений. Великий уравнитель 2 / The Equalizer 2 (Антуан Фукуа) [2018, боевик, триллер, криминал, WEB-DLRip] DUB

260 | 1

2.18 ГБ

В этой теме нет новых непрочитанных сообщений. Великий уравнитель 2 / The Equalizer 2 (Антуан Фукуа) [2018, боевик, триллер, криминал, WEB-DLRip-AVC] DUB

175 | 9

2.24 ГБ

В этой теме нет новых непрочитанных сообщений. Великий уравнитель 2 / The Equalizer 2 (Антуан Фукуа) [2018, боевик, триллер, криминал, TeleSynch] MVO

1350 | 32

1.46 ГБ

В этой теме нет новых непрочитанных сообщений. Великий уравнитель 2 / The Equalizer 2 (Антуан Фукуа) [2018, боевик, триллер, криминал, TeleSynch] MVO

212 | 1

1.99 ГБ

В этой теме нет новых непрочитанных сообщений. Великий уравнитель 2 / The Equalizer 2 (Антуан Фукуа) [2018, боевик, триллер, криминал, WEB-DLRip] DUB

969 | 16

1.46 ГБ

В этой теме нет новых непрочитанных сообщений. Великий уравнитель 2 / The Equalizer 2 (Антуан Фукуа) [2018, боевик, триллер, криминал, WEB-DLRip-AVC] DUB

56 | 2

745.62 МБ




Вы не можете начинать темы
Вы не можете отвечать на сообщения
Вы не можете редактировать свои сообщения
Вы не можете удалять свои сообщения
Вы не можете добавлять вложения

Перейти:  
 Вход
ppkBB3cker v.2 © 2008-2014 @ PPK
[ Time : 0.035s | 15 Queries | GZIP : Off ]

cron