img image001 image001 image001 image001 image001 image001 image001 image001 image001 image001 image001 image001 image001 image001 image001 image001

Planets Sun Sun Sun
Статистика раздачи
Автор: Снежана | Размер: 4.33 ГБ | Добавлен: 20 авг 2018
Раздают: 390    Качают: 15
Скачать торрент
Скачать торрент
Описание торрента

СообщениеДобавлено: 20 авг 2018 

Дэдпул 2 [Расширенная версия] / Deadpool 2 [Super Duper Cut]

Перевод: Профессиональный (полное дублирование) лицензия
Субтитры: Русские, английские
Формат: BDRip-AVC, MKV, H.264, AC3
Страна: США
Режиссер: Дэвид Литч
Жанр: фантастика, боевик, комедия, приключения
Продолжительность: 02:13:59
Год выпуска: 2018

В ролях: Райан Рейнольдс, Джош Бролин, Морена Баккарин, Джулиан Деннисон, Зази Битц, ТиДжей Миллер, Лесли Аггамс, Каран Сони, Брианна Хилдебранд, Джек Кеси

Описание: Единственный и неповторимый болтливый наемник — вернулся! Ещё более масштабный, ещё более разрушительный и даже ещё более голозадый, чем прежде! Когда в его жизнь врывается суперсолдат с убийственной миссией, Дэдпул вынужден задуматься о дружбе, семье и о том, что на самом деле значит быть героем, попутно надирая 50 оттенков задниц. Потому что иногда чтобы делать хорошие вещи, нужно использовать грязные приёмчики.



Видео: 1152x482 (2.40:1), 23.976 fps, AVC MPEG-4 (H.264), ~3639 kbps, 0.273 bit/pixel
Аудио #1: Русский: 48 kHz, AC3 Dolby Digital, 6 ch, ~448 kbps [Профессиональный (полное дублирование)]
Аудио #2: Английский: 48 kHz, AC3 Dolby Digital, 6 ch, ~448 kbps [Оригинал]

Format : Matroska
Format version : Version 4 / Version 2
File size : 4.33 GiB
Duration : 2 h 13 min
Overall bit rate : 4 627 kb/s
Movie name : Дэдпул 2 / Deadpool 2 (2018) Super Duper Cut :: AFM ::
Encoded date : UTC 2018-08-19 16:56:04
Writing application : mkvmerge v8.3.0 ('Over the Horizon') 32bit
Writing library : libebml v1.3.1 + libmatroska v1.4.2
Cover : Yes
Attachments : cover.jpg
Video
ID : 1
Format : AVC
Format/Info : Advanced Video Codec
Format profile :
Format settings, CABAC : Yes
Format settings, ReFrames : 12 frames
Codec ID : V_MPEG4/ISO/AVC
Duration : 2 h 13 min
Bit rate : 3 639 kb/s
Width : 1 152 pixels
Height : 482 pixels
Display aspect ratio : 2.40:1
Frame rate mode : Constant
Frame rate : 23.976 (24000/1001) FPS
Color space : YUV
Chroma subsampling : 4:2:0
Bit depth : 8 bits
Scan type : Progressive
Bits/(Pixel*Frame) : 0.273
Stream size : 3.41 GiB (79%)
Title : BDRip by AFM
Writing library : x264 core 155 r2867+82 a249126 t_mod_Custom_2 [8-bit@all X86_64]
Encoding settings : cabac=1 / ref=12 / deblock=1:-3:-2 / analyse=0x3:0x133 / me=umh / subme=10 / psy=1 / fade_compensate=0.00 / psy_rd=1.00:0.00 / mixed_ref=1 / me_range=32 / chroma_me=0 / trellis=2 / 8x8dct=1 / cqm=0 / deadzone=21,11 / fast_pskip=0 / chroma_qp_offset=-2 / threads=6 / lookahead_threads=1 / sliced_threads=0 / nr=0 / decimate=1 / interlaced=0 / bluray_compat=0 / constrained_intra=0 / fgo=0 / bframes=14 / b_pyramid=2 / b_adapt=2 / b_bias=0 / direct=1 / weightb=1 / open_gop=0 / weightp=2 / keyint=240 / keyint_min=23 / scenecut=40 / intra_refresh=0 / rc_lookahead=90 / rc=crf / mbtree=0 / crf=18.0000 / qcomp=0.70 / qpmin=0:0:0 / qpmax=69:69:69 / qpstep=4 / vbv_maxrate=50000 / vbv_bufsize=62500 / crf_max=0.0 / nal_hrd=none / filler=0 / ip_ratio=1.30 / pb_ratio=1.20 / aq=3:0.83 / aq-sensitivity=10.00 / aq-factor=1.00:1.00:1.00 / aq2=0 / aq3=0
Language : English
Default : Yes
Forced : No
Audio #1
ID : 2
Format : AC-3
Format/Info : Audio Coding 3
Mode extension : CM (complete main)
Format settings, Endianness : Big
Codec ID : A_AC3
Duration : 2 h 13 min
Bit rate mode : Constant
Bit rate : 448 kb/s
Channel(s) : 6 channels
Channel positions : Front: L C R, Side: L R, LFE
Sampling rate : 48.0 kHz
Frame rate : 31.250 FPS (1536 spf)
Compression mode : Lossy
Stream size : 429 MiB (10%)
Title : Dub, AC3 5.1 ~448 kbps
Language : Russian
Default : No
Forced : No
Audio #2
ID : 3
Format : AC-3
Format/Info : Audio Coding 3
Mode extension : CM (complete main)
Format settings, Endianness : Big
Codec ID : A_AC3
Duration : 2 h 13 min
Bit rate mode : Constant
Bit rate : 448 kb/s
Channel(s) : 6 channels
Channel positions : Front: L C R, Side: L R, LFE
Sampling rate : 48.0 kHz
Frame rate : 31.250 FPS (1536 spf)
Compression mode : Lossy
Stream size : 429 MiB (10%)
Title : Original, AC3 5.1 ~448 kbps
Language : English
Default : No
Forced : No
Text #1
ID : 4
Format : UTF-8
Codec ID : S_TEXT/UTF8
Codec ID/Info : UTF-8 Plain Text
Language : Russian
Default : No
Forced : No
Text #2
ID : 5
Format : UTF-8
Codec ID : S_TEXT/UTF8
Codec ID/Info : UTF-8 Plain Text
Language : English
Default : No
Forced : No
Text #3
ID : 6
Format : UTF-8
Codec ID : S_TEXT/UTF8
Codec ID/Info : UTF-8 Plain Text
Title : SDH
Language : English
Default : No
Forced : No
Menu
00:00:00.000 : en:Chapter 01
00:02:31.693 : en:Chapter 02
00:07:55.516 : en:Chapter 03
00:10:46.228 : en:Chapter 04
00:14:21.193 : en:Chapter 05
00:17:42.978 : en:Chapter 06
00:19:10.691 : en:Chapter 07
00:24:14.369 : en:Chapter 08
00:27:11.630 : en:Chapter 09
00:37:17.360 : en:Chapter 10
00:42:11.820 : en:Chapter 11
00:44:40.427 : en:Chapter 12
00:49:30.926 : en:Chapter 13
00:52:20.470 : en:Chapter 14
00:56:47.612 : en:Chapter 15
01:01:00.281 : en:Chapter 16
01:04:47.258 : en:Chapter 17
01:07:22.997 : en:Chapter 18
01:09:45.097 : en:Chapter 19
01:11:46.010 : en:Chapter 20
01:15:21.016 : en:Chapter 21
01:19:19.212 : en:Chapter 22
01:21:00.188 : en:Chapter 23
01:24:50.001 : en:Chapter 24
01:29:10.845 : en:Chapter 25
01:32:30.419 : en:Chapter 26
01:36:11.390 : en:Chapter 27
01:38:18.851 : en:Chapter 28
01:42:06.328 : en:Chapter 29
01:44:18.710 : en:Chapter 30
01:46:03.774 : en:Chapter 31
01:48:06.730 : en:Chapter 32
01:51:31.976 : en:Chapter 33
01:55:05.398 : en:Chapter 34
01:58:16.047 : en:Chapter 35
02:02:04.317 : en:Chapter 36












   Похожие торренты   Торрент   Размер 
В этой теме нет новых непрочитанных сообщений. Дэдпул 2 [Расширенная версия] / Deadpool 2 [Super Duper Cut] (Дэвид Литч) [2018, фантастика, боевик, комедия, приключения, HDRip-AVC] DUB

44 | 1

1.45 ГБ

В этой теме нет новых непрочитанных сообщений. Дэдпул 2 [Расширенная версия] / Deadpool 2 [Super Duper Cut] (Дэвид Литч) [2018, фантастика, боевик, комедия, приключения, HDRip] SUB

326 | 13

1.47 ГБ

В этой теме нет новых непрочитанных сообщений. Дэдпул 2 [Расширенная версия] / Deadpool 2 [Super Duper Cut] (Дэвид Литч) [2018, фантастика, боевик, комедия, приключения, BDRip] DUB

936 | 37

2.18 ГБ

В этой теме нет новых непрочитанных сообщений. Дэдпул 2 [Расширенная версия] / Deadpool 2 [Super Duper Cut] (Дэвид Литч) [2018, фантастика, боевик, комедия, приключения, BDRip] DUB

2051 | 68

1.46 ГБ

В этой теме нет новых непрочитанных сообщений. Дэдпул 2 / Deadpool 2 (Дэвид Литч) [2018, фантастика, боевик, комедия, приключения, HDRip] SUB

31 | 4

1.46 ГБ

В этой теме нет новых непрочитанных сообщений. Дэдпул 2 / Deadpool 2 (Дэвид Литч) [2018, фантастика, боевик, комедия, приключения, BDRip] DUB / Фантастика

168 | 8

2.18 ГБ

В этой теме нет новых непрочитанных сообщений. Дэдпул 2 / Deadpool 2 (Дэвид Литч) [2018, фантастика, боевик, комедия, приключения, BDRip] DUB / Фантастика

123 | 7

1.46 ГБ




Вы не можете начинать темы
Вы не можете отвечать на сообщения
Вы не можете редактировать свои сообщения
Вы не можете удалять свои сообщения
Вы не можете добавлять вложения

Перейти:  
 Вход
ppkBB3cker v.2 © 2008-2014 @ PPK
[ Time : 0.040s | 15 Queries | GZIP : Off ]

cron