img image001 image001 image001 image001 image001 image001 image001 image001 image001 image001 image001 image001 image001 image001 image001 image001

Planets Sun Sun Sun
Статистика раздачи
Автор: Снежана | Размер: 2.58 ГБ | Добавлен: 20 авг 2018
Раздают: 211    Качают: 14
Скачать торрент
Скачать торрент
Описание торрента

СообщениеДобавлено: 20 авг 2018 

22 мили / Mile 22


Перевод: Любительский (многоголосый закадровый)[КОЛОБОК], субтитры: отсутствуют

Формат: TeleSynch, MKV, H.264, AC3

Страна: США

Режиссер: Питер Берг

Жанр: боевик, триллер

Продолжительность: 01:29:15

Год выпуска: 2018

В ролях: Марк Уолберг, Лорен Кохэн, Ико Уайс, Джон Малкович, Ронда Раузи, Карло Альбан, Сиэль, Сэм Медина, Кит А. Болден

Описание: Призраки - элитный отряд сверхсекретной разведки: официально они не существуют, но на самом деле - реальны. Они решают задачи, когда старые методы уже не работают, и всегда добиваются поставленной цели. Суперагенту отряда при поддержке ЦРУ предстоит непростая миссия: тайно вывести из Индонезии полицейского, владеющего доказательствами коррупции в высших политических кругах. До спасительного самолета им предстоит преодолеть 22 смертельно опасные мили.



Видео: 1280x536 (2.4:1), 23.976 fps, AVC ~3756 kbps avg, 0.23 bit/pixel

Аудио: 48 kHz, AC3 Dolby Digital, 2/0 (L,R) ch, ~384 kbps


Общее
Уникальный идентификатор : 186956640018371310656804389700235978623 (0x8CA68A0482F44496A1E6B364D08C677F)
Полное имя : E:\Фільми\MiLe.22.2O18.Pk.TS.72Op_KOSHARA.mkv
Формат : Matroska
Версия формата : Version 2
Размер файла : 2,58 Гбайт
Продолжительность : 1 ч. 29 м.
Режим общего битрейта : Переменный
Общий поток : 4142 Кбит/сек
Дата кодирования : UTC 2018-08-20 09:37:36
Программа кодирования : mkvmerge v8.3.0 ('Over the Horizon') 64bit
Библиотека кодирования : libebml v1.3.1 + libmatroska v1.4.2

Видео
Идентификатор : 1
Формат : AVC
Формат/Информация : Advanced Video Codec
Профиль формата :
Настройки формата : CABAC / 4 Ref Frames
Параметр CABAC формата : Да
Параметр RefFrames формата : 4 кадра
Идентификатор кодека : V_MPEG4/ISO/AVC
Продолжительность : 1 ч. 29 м.
Вид битрейта : Переменный
Битрейт : 3756 Кбит/сек
Максимальный битрейт : 4000 Кбит/сек
Ширина : 1280 пикселей
Высота : 536 пикселей
Соотношение сторон : 2,40:1
Режим частоты кадров : Постоянный
Частота кадров : 23,976 (24000/1001) кадра/сек
Стандарт вещания : Component
Цветовое пространство : YUV
Субдискретизация насыщенности : 4:2:0
Битовая глубина : 8 бит
Тип развёртки : Прогрессивная
Бит/(Пиксели*Кадры) : 0.228
Размер потока : 2,34 Гбайт (91%)
Default : Да
Forced : Нет
Цветовой диапазон : Limited
Основные цвета : BT.709
Характеристики трансфера : BT.709
Коэффициенты матрицы : BT.709

Аудио
Идентификатор : 2
Формат : AC-3
Формат/Информация : Audio Coding 3
Идентификатор кодека : A_AC3
Продолжительность : 1 ч. 29 м.
Вид битрейта : Постоянный
Битрейт : 384 Кбит/сек
Каналы : 2 канала
Расположение каналов : Front: L R
Частота : 48,0 КГц
Частота кадров : 31,250 кадров/сек (1536 SPF)
Битовая глубина : 16 бит
Метод сжатия : С потерями
Размер потока : 245 Мбайт (9%)
ServiceKind/String : Complete Main
Default : Да
Forced : Нет











   Похожие торренты   Торрент   Размер 
В этой теме нет новых непрочитанных сообщений. Сокровище Амазонки / The Rundown (Питер Берг) [2003, боевик, триллер, комедия, приключения, BDRip] AVO

2 | 0

1.46 ГБ

В этой теме нет новых непрочитанных сообщений. Суперфлай / Superfly (Директор Икс.) [2018, Боевик, триллер, криминал, TeleSynch] MVO

42 | 6

1.46 ГБ

В этой теме нет новых непрочитанных сообщений. Великий уравнитель 2 / The Equalizer 2 (Антуан Фукуа) [2018, боевик, триллер, криминал, TeleSynch] MVO

1353 | 38

1.46 ГБ

В этой теме нет новых непрочитанных сообщений. Мег: Монстр глубины / The Meg (Джон Тёртлтауб) [2018, ужасы, фантастика, боевик, триллер, TeleSynch] DUB

1329 | 101

1.37 ГБ

В этой теме нет новых непрочитанных сообщений. Великий уравнитель 2 / The Equalizer 2 (Антуан Фукуа) [2018, боевик, триллер, криминал, TeleSynch] MVO

513 | 16

1.99 ГБ

В этой теме нет новых непрочитанных сообщений. 8 подруг Оушена / Ocean's Eight (Гэри Росс) [2018, боевик, триллер, комедия, криминал, TeleSynch] DUB

264 | 4

1.37 ГБ

В этой теме нет новых непрочитанных сообщений. Небоскрёб / Skyscraper (Роусон Маршалл Тёрбер) [2018, боевик, триллер, драма, криминал, TeleSynch V2] DUB

329 | 0

1.37 ГБ




Вы не можете начинать темы
Вы не можете отвечать на сообщения
Вы не можете редактировать свои сообщения
Вы не можете удалять свои сообщения
Вы не можете добавлять вложения

Перейти:  
 Вход
ppkBB3cker v.2 © 2008-2014 @ PPK
[ Time : 0.026s | 19 Queries | GZIP : Off ]

cron