img image001 image001 image001 image001 image001 image001 image001 image001 image001 image001 image001 image001 image001 image001 image001 image001

Planets Sun Sun Sun
Статистика раздачи
Автор: Снежана | Размер: 2.28 ГБ | Добавлен: 17 сен 2018
Раздают: 64    Качают: 7
Скачать торрент
Скачать торрент
Описание торрента

СообщениеДобавлено: 17 сен 2018 

Мэнди / Mandy

Перевод: Любительский (одноголосый) А. Важенин (BadBajo)
Субтитры: английские
Формат: WEB-DLRip-AVC, MKV, H.264, AC3
Страна: США, Бельгия
Режиссер: Панос Косматос
Жанр: ужасы, боевик, триллер
Продолжительность: 02:01:10
Год выпуска: 2018

В ролях: Николас Кейдж, Андреа Райзборо, Лайнас Роуч, Нед Деннехи, Олуэн Фуэр, Ричард Брэйк, Билл Дьюк, Лайн Пийе

Описание: 1983 год. Дровосек Ред с милой женой Мэнди тихо живет в сельской местности рядом с лесом. Ничего удивительного, но в лесу поселилось зло — религиозный культ в компании с адской байкерской бандой. Как не вовремя пошла Мэнди прогуляться в лесу, где и приглянулась зловещему лидеру культа Иеремие. Тот приказывает байкерам похитить девушку, накачивает ее наркотиками и придает ритуальному сожжению. И не оставляет выбора дровосеку Реду, кроме как встать на тропу мести.



Видео: 1024x428 (2.40:1), 23.976 fps, AVC MPEG-4 (H.264), ~1924 kbps, 0.183 bit/pixel
Аудио #1: Русский: 48 kHz, AC3 Dolby Digital, 6 ch, ~384 kbps [Любительский (одноголосый)]
Аудио #2: Английский: 48 kHz, AC3 Dolby Digital, 6 ch, ~384 kbps [Оригинал]

Формат : Matroska
Версия формата : Version 4 / Version 2
Размер файла : 2,28 Гбайт
Продолжительность : 2 ч. 1 м.
Общий поток : 2692 Кбит/сек
Название фильма : Mandy.2018 #TorpedoUK#
Дата кодирования : UTC 2018-09-15 16:25:28
Программа кодирования : mkvmerge v25.0.0 ('Prog Noir') 64-bit
Библиотека кодирования : libebml v1.3.6 + libmatroska v1.4.9
Обложка : Yes
Attachments : cover.jpg

Видео
Идентификатор : 1
Формат : AVC
Формат/Информация : Advanced Video Codec
Профиль формата :
Параметр CABAC формата : Да
Параметр ReFrames формата : 10 кадров
Идентификатор кодека : V_MPEG4/ISO/AVC
Продолжительность : 2 ч. 1 м.
Битрейт : 1924 Кбит/сек
Ширина : 1024 пикселя
Высота : 428 пикселей
Соотношение сторон : 2,40:1
Режим частоты кадров : Постоянный
Частота кадров : 23,976 (24000/1001) кадра/сек
Цветовое пространство : YUV
Субдискретизация насыщенности : 4:2:0
Битовая глубина : 8 бит
Тип развёртки : Прогрессивная
Бит/(Пиксели*Кадры) : 0.183
Размер потока : 1,63 Гбайт (71%)
Библиотека кодирования : x264 core 146 r2538 121396c
Настройки программы : cabac=1 / ref=10 / deblock=1:-2:-3 / analyse=0x3:0x113 / me=umh / subme=11 / psy=1 / psy_rd=0.95:0.07 / mixed_ref=1 / me_range=48 / chroma_me=1 / trellis=2 / 8x8dct=1 / cqm=0 / deadzone=21,11 / fast_pskip=1 / chroma_qp_offset=-3 / threads=6 / lookahead_threads=1 / sliced_threads=0 / nr=0 / decimate=1 / interlaced=0 / bluray_compat=0 / constrained_intra=0 / bframes=10 / b_pyramid=2 / b_adapt=2 / b_bias=0 / direct=3 / weightb=1 / open_gop=0 / weightp=2 / keyint=240 / keyint_min=23 / scenecut=40 / intra_refresh=0 / rc_lookahead=40 / rc=2pass / mbtree=0 / bitrate=1924 / ratetol=1.0 / qcomp=0.60 / qpmin=0 / qpmax=69 / qpstep=4 / cplxblur=20.0 / qblur=0.5 / vbv_maxrate=50000 / vbv_bufsize=62500 / nal_hrd=none / filler=0 / ip_ratio=1.40 / pb_ratio=1.30 / aq=1:1.00
Язык : English
Default : Да
Forced : Нет

Аудио #1
Идентификатор : 2
Формат : AC-3
Формат/Информация : Audio Coding 3
Расширение режима : CM (complete main)
Параметр Endianness формата : Big
Идентификатор кодека : A_AC3
Продолжительность : 2 ч. 1 м.
Вид битрейта : Постоянный
Битрейт : 384 Кбит/сек
Каналы : 6 каналов
Расположение каналов : Front: L C R, Side: L R, LFE
Частота : 48,0 КГц
Частота кадров : 31,250 кадров/сек (1536 spf)
Битовая глубина : 16 бит
Метод сжатия : С потерями
Размер потока : 333 Мбайт (14%)
Заголовок : VO [BadBajo]
Язык : Russian
Default : Да
Forced : Нет

Аудио #2
Идентификатор : 3
Формат : AC-3
Формат/Информация : Audio Coding 3
Расширение режима : CM (complete main)
Параметр Endianness формата : Big
Идентификатор кодека : A_AC3
Продолжительность : 2 ч. 1 м.
Вид битрейта : Постоянный
Битрейт : 384 Кбит/сек
Каналы : 6 каналов
Расположение каналов : Front: L C R, Side: L R, LFE
Частота : 48,0 КГц
Частота кадров : 31,250 кадров/сек (1536 spf)
Битовая глубина : 16 бит
Метод сжатия : С потерями
Размер потока : 333 Мбайт (14%)
Заголовок : [Original]
Язык : English
Default : Нет
Forced : Нет

Текст
Идентификатор : 4
Формат : UTF-8
Идентификатор кодека : S_TEXT/UTF8
Идентификатор кодека/Информация : UTF-8 Plain Text
Продолжительность : 1 ч. 55 м.
Битрейт : 15 бит/сек
Count of elements : 507
Размер потока : 13,0 Кбайт (0%)
Заголовок : Full
Язык : English
Default : Нет
Forced : Нет

Меню
00:00:00.000 : en:1
00:09:53.885 : en:2
00:21:18.611 : en:3
00:28:19.949 : en:4
00:41:26.485 : en:5
00:51:09.067 : en:6
01:00:52.483 : en:7
01:09:06.351 : en:8
01:21:15.038 : en:9
01:30:52.657 : en:10
01:40:38.034 : en:11
01:47:52.134 : en:12
01:57:14.029 : en:13












   Похожие торренты   Торрент   Размер 
В этой теме нет новых непрочитанных сообщений. Мэнди / Mandy (Панос Косматос) [2018, ужасы, боевик, триллер, WEB-DLRip-AVC] MVO

38 | 3

745.14 МБ

В этой теме нет новых непрочитанных сообщений. Мэнди / Mandy (Панос Косматос) [2018, ужасы, боевик, триллер, WEB-DLRip] MVO

78 | 1

1.46 ГБ

В этой теме нет новых непрочитанных сообщений. Мэнди / Mandy (Панос Косматос) [2018, ужасы, боевик, триллер, WEB-DLRip] VO

159 | 7

1.46 ГБ

В этой теме нет новых непрочитанных сообщений. Бхагмати / Bhaagamathie (Ашок Дж.) [2018, ужасы, боевик, триллер, история, WEB-DLRip] DVO

3 | 0

1.37 ГБ

В этой теме нет новых непрочитанных сообщений. Апгрейд / Upgrade (Ли Уоннелл) [2018, ужасы, фантастика, боевик, триллер, TS] DVO

80 | 6

1.37 ГБ

В этой теме нет новых непрочитанных сообщений. Все парни любят Мэнди Лейн / All the Boys Love Mandy Lane (2006) BDRip 720p | P2

14 | 1

4.66 ГБ

В этой теме нет новых непрочитанных сообщений. Мег: Монстр глубины / The Meg (Джон Тёртлтауб) [2018, ужасы, фантастика, боевик, триллер, TeleSynch] DUB

1261 | 98

1.37 ГБ




Вы не можете начинать темы
Вы не можете отвечать на сообщения
Вы не можете редактировать свои сообщения
Вы не можете удалять свои сообщения
Вы не можете добавлять вложения

Перейти:  
 Вход
ppkBB3cker v.2 © 2008-2014 @ PPK
[ Time : 0.024s | 17 Queries | GZIP : Off ]

cron