img image001 image001 image001 image001 image001 image001 image001 image001 image001 image001 image001 image001 image001 image001 image001 image001

Planets Sun Sun Sun
Статистика раздачи
Автор: Снежана | Размер: 10.9 ГБ | Добавлен: 19 сен 2018
Раздают: 3    Качают: 5
Скачать торрент
Скачать торрент
Описание торрента

СообщениеДобавлено: 19 сен 2018 

Конь БоДжек / BoJack Horseman


Перевод: Профессиональный (многоголосый, закадровый) IdeaFilm
Субтитры: отсутствуют
Формат: WEB-DLRip 720p, MKV, H.264, AC3
Страна: США
Режиссер: Рафаэль Боб-Вэксберг
Жанр: Мультфильм для взрослых, комедия
Всего серий: 12
Продолжительность: 12 х ~ 00:27:00
Год выпуска: 2018

В ролях: Адам Коновер, Аарон Пол, Уилл Арнетт, Эми Седарис, Мина Нодзи, Пол Ф. Томпкинс, Элисон Бри, Рэйчел Блум, Майк Холлингсворт, Пэттон Освальт

Описание: БоДжек — это не только лошадь, но и бывшая звезда популярного ситкома 90-х. В наши дни он пытается снова встать на ноги и ищет себя в череде провалов, самоуничижения, запоев и неудачных взаимоотношений. Герой сериала глушит виски, носит цветные свитера и не смешно шутит. Окружающие его не понимают, хотя пытаются помочь. В их числе — небритый друг Тодд и бывшая любовница Принцесса Каролина.



Видео: 1280x720p (16:9), 23.976 fps, AVC (х264), , ~3899 kbps avg, 0.176 bit/pixel
Аудио #1 Rus: 48 kHz, AC3 Dolby Digital, 3/2 (L,C,R,l,r) + LFE ch, ~384 kbps
Аудио #2 Eng: 48 kHz, AC3 Dolby Digital, 3/2 (L,C,R,l,r) + LFE ch, ~640 kbps

Внимание, присутствует реклама!


Video
ID : 1
Format : AVC
Format/Info : Advanced Video Codec
Format profile :
Format settings : CABAC / 4 Ref Frames
Format settings, CABAC : Yes
Format settings, ReFrames : 4 frames
Codec ID : V_MPEG4/ISO/AVC
Duration : 26 min 21 s
Bit rate : 3 899 kb/s
Width : 1 280 pixels
Height : 720 pixels
Display aspect ratio : 16:9
Frame rate mode : Constant
Frame rate : 23.976 (24000/1001) FPS
Standard : NTSC
Color space : YUV
Chroma subsampling : 4:2:0
Bit depth : 8 bits
Scan type : Progressive
Bits/(Pixel*Frame) : 0.176
Stream size : 735 MiB (79%)
Language : English
Default : Yes
Forced : No
Color range : Limited
Color primaries : BT.709
Transfer characteristics : BT.709
Matrix coefficients : BT.709

Audio #1
ID : 2
Format : AC-3
Format/Info : Audio Coding 3
Commercial name : Dolby Digital
Codec ID : A_AC3
Duration : 26 min 21 s
Bit rate mode : Constant
Bit rate : 384 kb/s
Channel(s) : 6 channels
Channel positions : Front: L C R, Side: L R, LFE
Sampling rate : 48.0 kHz
Frame rate : 31.250 FPS (1536 SPF)
Bit depth : 16 bits
Compression mode : Lossy
Stream size : 72.4 MiB (8%)
Title : IDEAFILM
Language : Russian
Service kind : Complete Main
Default : Yes
Forced : No

Audio #2
ID : 3
Format : AC-3
Format/Info : Audio Coding 3
Codec ID : A_AC3
Duration : 25 min 41 s
Bit rate : 640 kb/s
Channel(s) : 6 channels
Sampling rate : 48.0 kHz
Frame rate : 31.250 FPS (1536 SPF)
Compression mode : Lossy
Stream size : 118 MiB (13%)
Language : English
Default : No
Forced : No







   Похожие торренты   Торрент   Размер 
В этой теме нет новых непрочитанных сообщений. Конь БоДжек, 5 сезон 1-12 серии из 12 / BoJack Horseman (Рафаэль Боб-Вэксберг) [2018, мультфильм для взрослых, комедия, WEB-DLRip] MVO

5 | 4

4.77 ГБ

В этой теме нет новых непрочитанных сообщений. Конь БоДжек, 5 сезон 1-12 серии из 12 / BoJack Horseman (Рафаэль Боб-Вэксберг) [2018, мультфильм для взрослых, комедия, WEB-DLRip 1080p] MVO

7 | 2

17.46 ГБ

В этой теме нет новых непрочитанных сообщений. Конь БоДжек / BoJack Horseman [S05] (2018) WEBRip 720p | Gears Media

2 | 4

7.9 ГБ

В этой теме нет новых непрочитанных сообщений. Конь БоДжек / BoJack Horseman [04x01-02 из 12] (2017) WEB-DLRip 720p | OMSKBIRD

6 | 8

1.16 ГБ

В этой теме нет новых непрочитанных сообщений. Конь БоДжек / BoJack Horseman [04x01-02 из 12] (2017) WEB-DLRip 720p | OMSKBIRD

44 | 13

6.93 ГБ

В этой теме нет новых непрочитанных сообщений. Конь БоДжек / BoJack Horseman [04x01-02 из 12] (2017) WEB-DLRip 720p | OMSKBIRD

28 | 13

2.9 ГБ

В этой теме нет новых непрочитанных сообщений. Конь БоДжек / BoJack Horseman [S05] (2018) WEBRip | Gears Media

10 | 6

3.57 ГБ




Вы не можете начинать темы
Вы не можете отвечать на сообщения
Вы не можете редактировать свои сообщения
Вы не можете удалять свои сообщения
Вы не можете добавлять вложения

Перейти:  
 Вход
ppkBB3cker v.2 © 2008-2014 @ PPK
[ Time : 0.040s | 15 Queries | GZIP : Off ]

cron