img image001 image001 image001 image001 image001 image001 image001 image001 image001 image001 image001 image001 image001 image001 image001 image001

Planets Sun Sun Sun
Статистика раздачи
Автор: Снежана | Размер: 1.89 ГБ | Добавлен: 19 сен 2018
Раздают: 38    Качают: 11
Скачать торрент
Скачать торрент
Описание торрента

СообщениеДобавлено: 19 сен 2018 

Следующее поколение / Next Gen

Перевод: Профессиональный (полное дублирование) АРК-ТВ VSI International
Субтитры: Русские, английские
Формат: WEB-DLRip-AVC, MKV, H.264, AC3
Страна: Китай, Канада, США
Режиссер: Кевин Р. Адамс, Джо Ксандер
Жанр: мультфильм, фантастика, боевик, приключения, комедия
Продолжительность: 01:45:56
Год выпуска: 2018

В ролях: Джон Красински, Шарлин Йи, Джейсон Судейкис, Майкл Пенья, Дэвид Кросс, Констанс Ву, Киана Ледэ, Анна Акана, Иссак Райан Браун, Реба Бур

Описание: Недалекое будущее. Девушке-подростку Мэй приходится расти в изоляции: папа ушёл из семьи, а мама больше интересуется новыми технологиями, чем собственной дочерью. Однажды она приводит Мэй на выставку последних достижений науки и техники, где та случайно помогает сбежать из лаборатории роботу последнего поколения. Наконец-то у подростка появляется настоящий друг.



Видео: 1024x426p (2.40:1), 24 fps, AVC MPEG-4 (H.264), ~1810 kbps, 0.178 bit/pixel
Аудио #1: Русский: 48 kHz, AC3 Dolby Digital, 6 ch, ~384 kbps [Профессиональный (полное дублирование)]
Аудио #2: Английский: 48 kHz, AC3 Dolby Digital, 6 ch, ~384 kbps [Оригинал]

Format : Matroska
Format version : Version 4 / Version 2
File size : 1.89 GiB
Duration : 1h 45mn
Overall bit rate : 2 578 Kbps
Writing application : mkvmerge v7.1.0 ('Good Love') 64bit built on Jul 27 2014 13:06:55
Writing library : libebml v1.3.0 + libmatroska v1.4.1

Video
ID : 1
Format : AVC
Format/Info : Advanced Video Codec
Format profile :
Format settings, CABAC : Yes
Format settings, ReFrames : 10 frames
Codec ID : V_MPEG4/ISO/AVC
Duration : 1h 45mn
Bit rate : 1 810 Kbps
Width : 1 024 pixels
Height : 426 pixels
Display aspect ratio : 2.40:1
Frame rate mode : Constant
Frame rate : 24.000 fps
Color space : YUV
Chroma subsampling : 4:2:0
Bit depth : 8 bits
Scan type : Progressive
Bits/(Pixel*Frame) : 0.178
Writing library : x264 core 148 r2638 7599210
Encoding settings : cabac=1 / ref=10 / deblock=1:-2:-2 / analyse=0x3:0x133 / me=umh / subme=10 / psy=1 / psy_rd=1.00:0.20 / mixed_ref=1 / me_range=32 / chroma_me=1 / trellis=2 / 8x8dct=1 / cqm=0 / deadzone=21,11 / fast_pskip=1 / chroma_qp_offset=-3 / threads=6 / lookahead_threads=1 / sliced_threads=0 / nr=0 / decimate=1 / interlaced=0 / bluray_compat=0 / constrained_intra=0 / bframes=10 / b_pyramid=2 / b_adapt=2 / b_bias=0 / direct=3 / weightb=1 / open_gop=0 / weightp=2 / keyint=250 / keyint_min=23 / scenecut=40 / intra_refresh=0 / rc_lookahead=60 / rc=2pass / mbtree=1 / bitrate=1810 / ratetol=1.0 / qcomp=0.60 / qpmin=0 / qpmax=69 / qpstep=4 / cplxblur=20.0 / qblur=0.5 / ip_ratio=1.40 / aq=1:1.00
Default : Yes
Forced : No

Audio #1
ID : 2
Format : AC-3
Format/Info : Audio Coding 3
Mode extension : CM (complete main)
Format settings, Endianness : Big
Codec ID : A_AC3
Duration : 1h 45mn
Bit rate mode : Constant
Bit rate : 384 Kbps
Channel(s) : 6 channels
Channel positions : Front: L C R, Side: L R, LFE
Sampling rate : 48.0 KHz
Frame rate : 31.250 fps (1536 spf)
Compression mode : Lossy
Language : Russian
Default : Yes
Forced : No

Audio #2
ID : 3
Format : AC-3
Format/Info : Audio Coding 3
Mode extension : CM (complete main)
Format settings, Endianness : Big
Codec ID : A_AC3
Duration : 1h 45mn
Bit rate mode : Constant
Bit rate : 384 Kbps
Channel(s) : 6 channels
Channel positions : Front: L C R, Side: L R, LFE
Sampling rate : 48.0 KHz
Frame rate : 31.250 fps (1536 spf)
Compression mode : Lossy
Language : English
Default : No
Forced : No

Text #1
ID : 4
Format : UTF-8
Codec ID : S_TEXT/UTF8
Codec ID/Info : UTF-8 Plain Text
Duration : 1h 37mn
Bit rate : 64 bps
Count of elements : 1011
Stream size : 46.1 KiB (0%)
Language : Russian
Default : No
Forced : No

Text #2
ID : 5
Format : UTF-8
Codec ID : S_TEXT/UTF8
Codec ID/Info : UTF-8 Plain Text
Duration : 1h 39mn
Bit rate : 65 bps
Count of elements : 1540
Stream size : 47.9 KiB (0%)
Title : SDH
Language : English
Default : No
Forced : No












   Похожие торренты   Торрент   Размер 
В этой теме нет новых непрочитанных сообщений. Следующее поколение / Next Gen (Кевин Р. Адамс, Джо Ксандер) [2018, мультфильм, фантастика, боевик, приключения, комедия, WEB-DLRip] DUB

31 | 3

2.05 ГБ

В этой теме нет новых непрочитанных сообщений. Следующее поколение / Next Gen (Кевин Р. Адамс, Джо Ксандер) [2018, мультфильм, фантастика, боевик, приключения, комедия, WEB-DLRip] DUB

16 | 5

745.38 МБ

В этой теме нет новых непрочитанных сообщений. Следующее поколение / Next Gen (Кевин Р. Адамс, Джо Ксандер) [2018, мультфильм, фантастика, боевик, приключения, комедия, WEB-DLRip] DUB

191 | 13

1.46 ГБ

В этой теме нет новых непрочитанных сообщений. Следующее поколение / Next Gen (Кевин Р. Адамс, Джо Ксандер) [2018, мультфильм, фантастика, боевик, приключения, комедия, WEB-DL 1080p] DUB

372 | 17

4.47 ГБ

В этой теме нет новых непрочитанных сообщений. Следующее поколение / Next Gen (Кевин Р. Адамс, Джо Ксандер) [2018, мультфильм, фантастика, боевик, приключения, комедия, WEB-DL 720p] DUB+VO

51 | 13

3.81 ГБ

В этой теме нет новых непрочитанных сообщений. Следующее поколение / Next Gen (Кевин Р. Адамс) [2018, Мультфильм, комедия, приключения, фантастика, WebDlRip-AVC] VO [Solod]

140 | 8

1.52 ГБ

В этой теме нет новых непрочитанных сообщений. Суперсемейка 2 / Incredibles 2 (Брэд Бёрд) [2018, мультфильм, фантастика, боевик, комедия, приключения, семейный, TeleSynch]

1145 | 16

1.34 ГБ




Вы не можете начинать темы
Вы не можете отвечать на сообщения
Вы не можете редактировать свои сообщения
Вы не можете удалять свои сообщения
Вы не можете добавлять вложения

Перейти:  
 Вход
ppkBB3cker v.2 © 2008-2014 @ PPK
[ Time : 0.030s | 16 Queries | GZIP : Off ]

cron