img image001 image001 image001 image001 image001 image001 image001 image001 image001 image001 image001 image001 image001 image001 image001 image001

Planets Sun Sun Sun
Статистика раздачи
Автор: Снежана | Размер: 42.92 ГБ | Добавлен: 21 сен 2018
Раздают: 11    Качают: 3
Скачать торрент
Скачать торрент
Описание торрента

СообщениеДобавлено: 21 сен 2018 

Ментовские войны (11 сезон 1-16 серии из 16)

Перевод: Не требуется, cубтитры: отсутствуют
Формат: HDTV 1080i, MPEG-TS, H.264, MP2
Страна: Россия
Режиссер: Алан Дзоциев
Жанр: боевик, детектив, криминал
Всего серий: 16
Продолжительность: 16 x ~ 00:45:00
Год выпуска: 2017-2018

В ролях: Александр Устюгов, Всеволод Цурило, Андрей Аладьин, Андрей Биланов, Наталья Мызникова, Андрей Марусин, Андрей Кузнецов, Денис Решетников, Арсений Бородин (II), Григорий Орлов, Сергей Бескакотов, Денис Трапезников, Виктория Фёдорова (II), Анна Фомичёва, Роберт Студеновский, Юрий Коршунов, Андрей Скворцов, Алексей Петров (IV), Евгения Свиридова, Светлана Смирнова-Кацагаджиева, Дмитрий Трофимов, Вадим Карев, Андрей Чунарёв, Владимир Постников, Владислав Ставропольцев, Мария Иванова (IV), Андрей Крушинский, Роман Воронцов, Денис Моисеев, Семён Афендулов, Сергей Выборнов, Виталий Григорьев, Сергей Радуто, Вячеслав Штыпс, Александр Цыбульский, Сергей Барабаш, Руслан Китайгородский, Елена Крайняя, Филипп Чевычелов, Никита Сидоров, Андрей Кондратьев (III), Андрей Тимошевский, Геннадий Май, Алла Одинг, Кристина Оленникова, Сергей Яковлев (VI), Андрей Желтов, Сергей Смирнов (IV), Андрей Мокеев, Мария Славская, Дмитрий Кушнарёв, Эльсевар Джафаров, Андрей Вергелис, Сергей Якушев (II), Павел Юринов, Артур Федынко, Фёдор Гукасян, Дарина Одинцова, Владимир Юров, Сергей Андрейчук, Андрей Астраханцев, Олег Дроздов, Виктор Кренделев, Андрей Слепухин, Михаил Самочко, Дмитрий Лебедев (III), Елизавета Ковалёва, Александр Бажутов, Денис Старков, Наталья Лыжина

Описание: Роман Шилов, занявший высокий пост заместителя начальника ГУ МВД по Санкт-Петербургу и Ленинградской области, выходит на новый уровень борьбы с оборотнями в погонах. Теперь он вынужден привыкать к нелюбимой бумажной волоките, ради которой оставил оперативную работу, и координировать работу всей городской полиции. Но далеко не все подчинённые одобряют излишнее рвение Романа Георгиевича...

Рейтинг и доп. информация:


Видео: 1920х1080 (16:9), 25 fps, AVC MPEG-TS (x264), Main@L4 ~ 7900 kbps , 0.152 bit/pixel
Аудио: 48 kHz, MPEG Layer 2, 2 ch, ~192.00 kbps avg
Общее
Идентификатор : 1 (0x1)
Полное имя : C: Mentovskie.voyny-11.2017.HDTV.(1080i).Nikolspup\Mentovskie.voyny-11.(01.seriya).2017.HDTV.(1080i).Nikolspup.ts
Формат : MPEG-TS
Размер файла : 2,65 Гбайт
Продолжительность : 44 м. 48 с.
Режим общего битрейта : Переменный
Общий поток : 8474 Кбит/сек

Видео
Идентификатор : 901 (0x385)
Идентификатор меню : 1081 (0x439)
Формат : AVC
Формат/Информация : Advanced Video Codec
Профиль формата : Main@L4
Настройки формата : CABAC / 2 Ref Frames
Параметр CABAC формата : Да
Параметр RefFrames формата : 2 кадра
Параметр GOP формата : M=3, N=30
Идентификатор кодека : 27
Продолжительность : 44 м. 48 с.
Битрейт : 7900 Кбит/сек
Ширина : 1920 пикселей
Высота : 1080 пикселей
Соотношение сторон : 16:9
Частота кадров : 25,000 кадров/сек
Цветовое пространство : YUV
Субдискретизация насыщенности : 4:2:0
Битовая глубина : 8 бит
Тип развёртки : MBAFF
Метод сохранения типа развёртки : Чередующиеся поля
Порядок развёртки : Верхнее поле первое
Бит/(Пиксели*Кадры) : 0.152
Размер потока : 2,46 Гбайт (93%)
Цветовой диапазон : Limited
Основные цвета : BT.709
Характеристики трансфера : BT.709
Коэффициенты матрицы : BT.709

Аудио
Идентификатор : 902 (0x386)
Идентификатор меню : 1081 (0x439)
Формат : MPEG Audio
Версия формата : Version 1
Профиль формата : Layer 2
Идентификатор кодека : 3
Продолжительность : 44 м. 48 с.
Вид битрейта : Постоянный
Битрейт : 192 Кбит/сек
Каналы : 2 канала
Частота : 48,0 КГц
Частота кадров : 41,667 кадра/сек (1152 SPF)
Метод сжатия : С потерями
Размер потока : 61,5 Мбайт (2%)
Язык : Russian








   Похожие торренты   Торрент   Размер 
В этой теме нет новых непрочитанных сообщений. Ментовские войны (11 сезон 1-12 серии из 16) (Алан Дзоциев) [2017-2018, боевик, детектив, криминал, HDTV 1080i]

21 | 61

32.09 ГБ

В этой теме нет новых непрочитанных сообщений. Ментовские войны (11 сезон 1-14 серии из 16) (Алан Дзоциев) [2017-2018, боевик, детектив, криминал, HDTV 1080i]

5 | 1

37.5 ГБ

В этой теме нет новых непрочитанных сообщений. Ментовские войны (11 сезон 1-12 серии из 16) (Алан Дзоциев) [2017-2018, боевик, детектив, криминал, HDTVRip]

30 | 23

6.45 ГБ

В этой теме нет новых непрочитанных сообщений. Ментовские войны (11 сезон 1-16 серии из 16) (Алан Дзоциев) [2017-2018, боевик, детектив, криминал, HDTVRip]

121 | 48

8.62 ГБ

В этой теме нет новых непрочитанных сообщений. Ментовские войны (11 сезон 1-14 серии из 16) (Алан Дзоциев) [2017-2018, боевик, детектив, криминал, HDTVRip-AVC]

10 | 10

9.69 ГБ

В этой теме нет новых непрочитанных сообщений. Ментовские войны (11 сезон 1-16 серии из 16) (Алан Дзоциев) [2017-2018, боевик, детектив, криминал, HDTVRip-AVC]

28 | 16

11.09 ГБ

В этой теме нет новых непрочитанных сообщений. Ментовские войны (11 сезон 1-12 серии из 16) (Алан Дзоциев) [2017-2018, боевик, детектив, криминал, HDTVRip-AVC]

27 | 29

8.29 ГБ




Вы не можете начинать темы
Вы не можете отвечать на сообщения
Вы не можете редактировать свои сообщения
Вы не можете удалять свои сообщения
Вы не можете добавлять вложения

Перейти:  
 Вход
ppkBB3cker v.2 © 2008-2014 @ PPK
[ Time : 0.034s | 16 Queries | GZIP : Off ]

cron