img image001 image001 image001 image001 image001 image001 image001 image001 image001 image001 image001 image001 image001 image001 image001 image001

Planets Sun Sun Sun
Статистика раздачи
Автор: Снежана | Размер: 11.09 ГБ | Добавлен: 21 сен 2018
Раздают: 28    Качают: 16
Скачать торрент
Скачать торрент
Описание торрента

СообщениеДобавлено: 21 сен 2018 

Ментовские войны (11 сезон 1-16 серии из 16)

Перевод: Не требуется, cубтитры: отсутствуют
Формат: HDTVRip-AVC, MKV, H.264, AC3
Страна: Россия
Режиссер: Алан Дзоциев
Жанр: боевик, детектив, криминал
Всего серий: 16
Продолжительность: 16 х ~ 00:45:00
Год выпуска: 2017-2018

В ролях: Александр Устюгов, Всеволод Цурило, Андрей Аладьин, Андрей Биланов, Наталья Мызникова, Андрей Марусин, Андрей Кузнецов, Денис Решетников, Арсений Бородин (II), Григорий Орлов, Сергей Бескакотов, Денис Трапезников, Виктория Фёдорова (II), Анна Фомичёва, Роберт Студеновский, Юрий Коршунов, Андрей Скворцов, Алексей Петров (IV), Евгения Свиридова, Светлана Смирнова-Кацагаджиева, Дмитрий Трофимов, Вадим Карев, Андрей Чунарёв, Владимир Постников, Владислав Ставропольцев, Мария Иванова (IV), Андрей Крушинский, Роман Воронцов, Денис Моисеев, Семён Афендулов, Сергей Выборнов, Виталий Григорьев, Сергей Радуто, Вячеслав Штыпс, Александр Цыбульский, Сергей Барабаш, Руслан Китайгородский, Елена Крайняя, Филипп Чевычелов, Никита Сидоров, Андрей Кондратьев (III), Андрей Тимошевский, Геннадий Май, Алла Одинг, Кристина Оленникова, Сергей Яковлев (VI), Андрей Желтов, Сергей Смирнов (IV), Андрей Мокеев, Мария Славская, Дмитрий Кушнарёв, Эльсевар Джафаров, Андрей Вергелис, Сергей Якушев (II), Павел Юринов, Артур Федынко, Фёдор Гукасян, Дарина Одинцова, Владимир Юров, Сергей Андрейчук, Андрей Астраханцев, Олег Дроздов, Виктор Кренделев, Андрей Слепухин, Михаил Самочко, Дмитрий Лебедев (III), Елизавета Ковалёва, Александр Бажутов, Денис Старков, Наталья Лыжина

Описание: Роман Шилов, занявший высокий пост заместителя начальника ГУ МВД по Санкт-Петербургу и Ленинградской области, выходит на новый уровень борьбы с оборотнями в погонах. Теперь он вынужден привыкать к нелюбимой бумажной волоките, ради которой оставил оперативную работу, и координировать работу всей городской полиции. Но далеко не все подчинённые одобряют излишнее рвение Романа Георгиевича...

Рейтинг и доп. информация:


Видео: 1024x576 (16:9), 25 fps, AVC MPEG-4 (x264), ~ 2000 kbps , 0.136 bit/pixel
Аудио: 48 kHz, АС3, 2/0 (L,R), ~192.00 kbps avg
Общее
Уникальный идентификатор : 183026758384525017771357505818722999937 (0x89B1ABE4C83A65EDAFE5EC9779EA9E81)
Полное имя : C:\Mentovskie.voyny-11.(2017).HDTVRip.(AVC).\01.Mentovskie.voyny-11.(2017).HDTVRip.AVC.mkv
Формат : Matroska
Версия формата : Version 2
Размер файла : 703 Мбайт
Продолжительность : 44 м. 47 с.
Общий поток : 2194 Кбит/сек
Дата кодирования : UTC 2017-11-27 22:34:03
Программа кодирования : mkvmerge v7.8.0 ('River Man') 32bit built on Apr 3 2015 12:11:22
Библиотека кодирования : libebml v1.3.1 + libmatroska v1.4.2

Видео
Идентификатор : 1
Формат : AVC
Формат/Информация : Advanced Video Codec
Профиль формата :
Настройки формата : CABAC / 9 Ref Frames
Параметр CABAC формата : Да
Параметр RefFrames формата : 9 кадров
Идентификатор кодека : V_MPEG4/ISO/AVC
Продолжительность : 44 м. 47 с.
Битрейт : 2000 Кбит/сек
Ширина : 1024 пикселя
Высота : 576 пикселей
Соотношение сторон : 16:9
Режим частоты кадров : Постоянный
Частота кадров : 25,000 кадров/сек
Цветовое пространство : YUV
Субдискретизация насыщенности : 4:2:0
Битовая глубина : 8 бит
Тип развёртки : Прогрессивная
Бит/(Пиксели*Кадры) : 0.136
Размер потока : 627 Мбайт (89%)
Библиотека кодирования : x264 core 146 r2538 121396c
Настройки программы : cabac=1 / ref=9 / deblock=1:-2:-1 / analyse=0x3:0x133 / me=umh / subme=9 / psy=1 / psy_rd=1.00:0.15 / mixed_ref=1 / me_range=32 / chroma_me=1 / trellis=2 / 8x8dct=1 / cqm=0 / deadzone=21,11 / fast_pskip=0 / chroma_qp_offset=-3 / threads=18 / lookahead_threads=3 / sliced_threads=0 / nr=0 / decimate=1 / interlaced=0 / bluray_compat=0 / constrained_intra=0 / bframes=9 / b_pyramid=2 / b_adapt=2 / b_bias=0 / direct=1 / weightb=1 / open_gop=0 / weightp=2 / keyint=250 / keyint_min=25 / scenecut=40 / intra_refresh=0 / rc=2pass / mbtree=0 / bitrate=2000 / ratetol=1.0 / qcomp=0.60 / qpmin=0 / qpmax=69 / qpstep=4 / cplxblur=20.0 / qblur=0.5 / ip_ratio=1.40 / pb_ratio=1.30 / aq=2:1.00
Default : Да
Forced : Нет
Цветовой диапазон : Limited
Основные цвета : BT.709
Характеристики трансфера : BT.709
Коэффициенты матрицы : BT.709

Аудио
Идентификатор : 2
Формат : AC-3
Формат/Информация : Audio Coding 3
Идентификатор кодека : A_AC3
Продолжительность : 44 м. 47 с.
Вид битрейта : Постоянный
Битрейт : 192 Кбит/сек
Каналы : 2 канала
Расположение каналов : Front: L R
Частота : 48,0 КГц
Частота кадров : 31,250 кадров/сек (1536 SPF)
Битовая глубина : 16 бит
Метод сжатия : С потерями
Размер потока : 61,5 Мбайт (9%)
ServiceKind/String : Complete Main
Default : Да
Forced : Нет















   Похожие торренты   Торрент   Размер 
В этой теме нет новых непрочитанных сообщений. Ментовские войны (11 сезон 1-12 серии из 16) (Алан Дзоциев) [2017-2018, боевик, детектив, криминал, HDTVRip]

30 | 23

6.45 ГБ

В этой теме нет новых непрочитанных сообщений. Ментовские войны (11 сезон 1-14 серии из 16) (Алан Дзоциев) [2017-2018, боевик, детектив, криминал, HDTVRip-AVC]

10 | 10

9.69 ГБ

В этой теме нет новых непрочитанных сообщений. Ментовские войны (11 сезон 1-16 серии из 16) (Алан Дзоциев) [2017-2018, боевик, детектив, криминал, HDTVRip]

121 | 48

8.62 ГБ

В этой теме нет новых непрочитанных сообщений. Ментовские войны (11 сезон 1-12 серии из 16) (Алан Дзоциев) [2017-2018, боевик, детектив, криминал, HDTVRip-AVC]

27 | 29

8.29 ГБ

В этой теме нет новых непрочитанных сообщений. Ментовские войны (11 сезон 1-14 серии из 16) (Алан Дзоциев) [2017-2018, боевик, детектив, криминал, HDTVRip 720p]

4 | 1

16.35 ГБ

В этой теме нет новых непрочитанных сообщений. Ментовские войны (11 сезон 1-16 серии из 16) (Алан Дзоциев) [2017-2018, боевик, детектив, криминал, HDTVRip 720p]

13 | 4

18.71 ГБ

В этой теме нет новых непрочитанных сообщений. Ментовские войны (11 сезон 1-14 серии из 16) (Алан Дзоциев) [2017-2018, боевик, детектив, криминал, HDTV 1080i]

5 | 1

37.5 ГБ




Вы не можете начинать темы
Вы не можете отвечать на сообщения
Вы не можете редактировать свои сообщения
Вы не можете удалять свои сообщения
Вы не можете добавлять вложения

Перейти:  
 Вход
ppkBB3cker v.2 © 2008-2014 @ PPK
[ Time : 0.045s | 17 Queries | GZIP : Off ]

cron